13.Hours.The.Secret.Soldiers.of.Benghazi.2016.BRRip.XviD.MP3-RARBG

29. Mai 2016 von
13.Hours.The.Secret.Soldiers.of.Benghazi.2016.BRRip.XviD.MP3-RARBG Warez-World
Aufrufe: 20 Hits
Vote 4 Us
Release:
13 Hours The Secret Soldiers of Benghazi
Genre:
Drama
Laufzeit:
144 Min.
Größe:
1890 MB
Passwort:
Warez-World.org
Sprachen:
Video Codec:
MPEG-4 DivX / Xvid
Audio Stream:
Dolby Digital 5.1
Info:
Zeige NFOVerberge NFO
[URL]http://www.imdb.com/title/tt4172430/[/URL]
[URL=http://imagecurl.com/viewer.php?file=77747285871900050137.png][IMG]http://imagecurl.com/images/77747285871900050137_thumb.png[/IMG][/URL]
[URL=http://imagecurl.com/viewer.php?file=90410567485131101116.png][IMG]http://imagecurl.com/images/90410567485131101116_thumb.png[/IMG][/URL]
[URL=http://imagecurl.com/viewer.php?file=05464490377209706830.png][IMG]http://imagecurl.com/images/05464490377209706830_thumb.png[/IMG][/URL]
[URL=http://imagecurl.com/viewer.php?file=84378033682436326342.png][IMG]http://imagecurl.com/images/84378033682436326342_thumb.png[/IMG][/URL]
[URL=http://imagecurl.com/viewer.php?file=80156817157646781140.png][IMG]http://imagecurl.com/images/80156817157646781140_thumb.png[/IMG][/URL]


[mediainfo]
Video
ID                                       : 0
Format                                   : MPEG-4 Visual
Format profile                           : Simple@L5
Format settings, BVOP                    : No
Format settings, QPel                    : No
Format settings, GMC                     : No warppoints
Format settings, Matrix                  : Default (H.263)
Codec ID                                 : XVID
Codec ID/Hint                            : XviD
Duration                                 : 2h 24mn
Bit rate                                 : 1 598 Kbps
Width                                    : 720 pixels
Height                                   : 302 pixels
Display aspect ratio                     : 2.40:1
Original display aspect ratio            : 2.40:1
Frame rate                               : 23.976 fps
Color space                              : YUV
Chroma subsampling                       : 4:2:0
Bit depth                                : 8 bits
Scan type                                : Progressive
Compression mode                         : Lossy
Bits/(Pixel*Frame)                       : 0.307
Stream size                              : 1.61 GiB (89%)
Title                                    : RARBG.COM - 13.Hours.The.Secret.Soldiers.of.Benghazi.2016.BRRip.XviD.MP3-RARBG
Writing library                          : Lavc56.60.100

Audio
ID                                       : 1
Format                                   : MPEG Audio
Format version                           : Version 1
Format profile                           : Layer 3
Mode                                     : Joint stereo
Mode extension                           : MS Stereo
Codec ID                                 : 55
Codec ID/Hint                            : MP3
Duration                                 : 2h 24mn
Bit rate mode                            : Constant
Bit rate                                 : 192 Kbps
Channel(s)                               : 2 channels
Sampling rate                            : 48.0 KHz
Compression mode                         : Lossy
Stream size                              : 198 MiB (11%)
Alignment                                : Aligned on interleaves
Interleave, duration                     : 24 ms (0.58 video frame)
Interleave, preload duration             : 24 ms
Title                                    : RARBG.COM - 13.Hours.The.Secret.Soldiers.of.Benghazi.2016.BRRip.XviD.MP3-RARBG
Writing library                          : LAME3.99.5



[/mediainfo]
Beschreibung:
13.Hours.The.Secret.Soldiers.of.Benghazi.2016.BRRip.XviD.MP3-RARBG
Es ist die Nacht des 11. Septembers 2012 - genau 11 Jahre nach den verheerenden Anschlägen auf das World Trade Center - als das US-General-Konsulat in Bengasi, Libyen, überraschend mit schwerem Geschütz angegriffen wird. Als ein eindeutiger militärischer Rettungsbefehl aus Washington ausbleibt, entscheidet sich ein Team privater Sicherheitskräfte für den Alleingang. Sie, die in einem geheimen CIA Stützpunkt in der Nähe stationiert sind, wollen die Botschaft den Angreifern nicht kampflos überlassen. Dabei riskieren die ehemaligen Soldaten Jack, Rone, Tanto, Boon, Oz und Glen nicht nur ihr Leben, sondern setzen sich auch über einen Befehl hinweg. Denn um die Existenz des geheimen CIA Stützpunkts zu sichern, wird ihnen ein Eingreifen strengstens von oberster Stelle untersagt. Ein 13-stündiger, selbstloser Einsatz gegen Befehl und Gehorsam und für das Leben ihrer Landsleute beginnt...
Direct Download Links | DDL-Links

Ähnliche Releases der Kategorie