The.Do.Over.2016.NF.WEBRip.DD5.1.x264-BTW

1. Juni 2016 von
The.Do.Over.2016.NF.WEBRip.DD5.1.x264-BTW Warez-World
Aufrufe: 227 Hits
Vote 4 Us
Release:
The Do Over 2016 NF WEB-RIP
Genre:
Comedy
Laufzeit:
108 Min.
Größe:
1946 MB
Passwort:
Warez-World.org
Sprachen:
Video Codec:
MPEG-4 H.264 / AVC
Audio Stream:
Dolby Digital 5.1
Bewertung:
Video Vorschau:
Online Stream:
Info:
Zeige NFOVerberge NFO
[URL=http://imagecurl.com/viewer.php?file=98675171118922669093.png][IMG]http://imagecurl.com/images/98675171118922669093_thumb.png[/IMG][/URL]
[URL=http://imagecurl.com/viewer.php?file=49087195375188181333.png][IMG]http://imagecurl.com/images/49087195375188181333_thumb.png[/IMG][/URL]
[URL=http://imagecurl.com/viewer.php?file=57795699043323991552.png][IMG]http://imagecurl.com/images/57795699043323991552_thumb.png[/IMG][/URL]
[URL=http://imagecurl.com/viewer.php?file=59444044825626618017.png][IMG]http://imagecurl.com/images/59444044825626618017_thumb.png[/IMG][/URL]
[URL=http://imagecurl.com/viewer.php?file=17754884616392615249.png][IMG]http://imagecurl.com/images/17754884616392615249_thumb.png[/IMG][/URL]
[URL=http://imagecurl.com/viewer.php?file=90266952774088488116.png][IMG]http://imagecurl.com/images/90266952774088488116_thumb.png[/IMG][/URL]



[mediainfo]
Video
ID                                       : 1
Format                                   : AVC
Format/Info                              : Advanced Video Codec
Format profile                           : Main@L3
Format settings, CABAC                   : Yes
Format settings, ReFrames                : 3 frames
Codec ID                                 : V_MPEG4/ISO/AVC
Duration                                 : 1h 48mn
Bit rate mode                            : Variable
Bit rate                                 : 2 150 Kbps
Maximum bit rate                         : 3 225 Kbps
Width                                    : 720 pixels
Height                                   : 480 pixels
Display aspect ratio                     : 16:9
Frame rate mode                          : Constant
Frame rate                               : 23.976 (23976/1000) fps
Original frame rate                      : 23.976 (24000/1001) fps
Color space                              : YUV
Chroma subsampling                       : 4:2:0
Bit depth                                : 8 bits
Scan type                                : Progressive
Bits/(Pixel*Frame)                       : 0.259
Stream size                              : 1.57 GiB (83%)
Writing library                          : x264 core 118
Encoding settings                        : cabac=1 / ref=3 / deblock=1:0:0 / analyse=0x1:0x111 / me=umh / subme=10 / psy=1 / psy_rd=1.00:0.00 / mixed_ref=1 / me_range=24 / chroma_me=1 / trellis=2 / 8x8dct=0 / cqm=0 / deadzone=21,11 / fast_pskip=1 / chroma_qp_offset=-2 / threads=6 / sliced_threads=0 / nr=0 / decimate=1 / interlaced=0 / bluray_compat=0 / constrained_intra=0 / bframes=2 / b_pyramid=0 / b_adapt=2 / b_bias=0 / direct=3 / weightb=1 / open_gop=0 / weightp=2 / keyint=48 / keyint_min=25 / scenecut=0 / intra_refresh=0 / rc_lookahead=0 / rc=2pass / mbtree=1 / bitrate=2150 / ratetol=1.0 / qcomp=0.50 / qpmin=6 / qpmax=51 / qpstep=4 / cplxblur=20.0 / qblur=0.5 / vbv_maxrate=3225 / vbv_bufsize=4300 / nal_hrd=vbr / ip_ratio=1.40 / aq=1:1.00
Default                                  : Yes
Forced                                   : No

Audio
ID                                       : 2
Format                                   : AC-3
Format/Info                              : Audio Coding 3
Mode extension                           : CM (complete main)
Format settings, Endianness              : Big
Codec ID                                 : A_AC3
Duration                                 : 1h 48mn
Bit rate mode                            : Constant
Bit rate                                 : 384 Kbps
Channel(s)                               : 6 channels
Channel positions                        : Front: L C R, Side: L R, LFE
Sampling rate                            : 48.0 KHz
Frame rate                               : 31.250 fps (1536 spf)
Compression mode                         : Lossy
Delay relative to video                  : -41ms
Stream size                              : 299 MiB (15%)
Language                                 : English
Default                                  : Yes
Forced                                   : No

Text #1
ID                                       : 3
Format                                   : UTF-8
Codec ID                                 : S_TEXT/UTF8
Codec ID/Info                            : UTF-8 Plain Text
Language                                 : English
Default                                  : No
Forced                                   : No

Text #2
ID                                       : 4
Format                                   : UTF-8
Codec ID                                 : S_TEXT/UTF8
Codec ID/Info                            : UTF-8 Plain Text
Language                                 : French
Default                                  : No
Forced                                   : No

Text #3
ID                                       : 5
Format                                   : UTF-8
Codec ID                                 : S_TEXT/UTF8
Codec ID/Info                            : UTF-8 Plain Text
Language                                 : German
Default                                  : No
Forced                                   : No

Text #4
ID                                       : 6
Format                                   : UTF-8
Codec ID                                 : S_TEXT/UTF8
Codec ID/Info                            : UTF-8 Plain Text
Language                                 : Italian
Default                                  : No
Forced                                   : No



[/mediainfo]
Beschreibung:
The.Do.Over.2016.NF.WEBRip.DD5.1.x264-BTW
Max und Charlie sind zwei Versager, die in ihrem Leben in einer Sackgasse angelangt sind. Also beschließen sie, ihren eigenen Tod vorzutäuschen und unter neuen Identitäten einen Neustart zu wagen. Doch dann stellt sich heraus, dass die Typen, die zu vorgeben zu sein, noch viel mehr Ärger am Hals haben.
Direct Download Links | DDL-Links

Ähnliche Releases der Kategorie