The.Do.Over.2016.WEBRip.XviD.AC3-FGT

1. Juni 2016 von
The.Do.Over.2016.WEBRip.XviD.AC3-FGT Warez-World
Aufrufe: 255 Hits
Vote 4 Us
Release:
The Do Over WEB-RIP
Genre:
Comedy
Laufzeit:
9 Min.
Größe:
1513 MB
Passwort:
Warez-World.org
Sprachen:
Video Codec:
MPEG-4 DivX / Xvid
Audio Stream:
Dolby Digital 5.1
Bewertung:
Video Vorschau:
Online Stream:
Info:
Zeige NFOVerberge NFO
[URL=http://imagecurl.com/viewer.php?file=75941642797904895752.png][IMG]http://imagecurl.com/images/75941642797904895752_thumb.png[/IMG][/URL]
[URL=http://imagecurl.com/viewer.php?file=87049939064632393040.png][IMG]http://imagecurl.com/images/87049939064632393040_thumb.png[/IMG][/URL]
[URL=http://imagecurl.com/viewer.php?file=09003127331143060903.png][IMG]http://imagecurl.com/images/09003127331143060903_thumb.png[/IMG][/URL]
[URL=http://imagecurl.com/viewer.php?file=77937554137417201376.png][IMG]http://imagecurl.com/images/77937554137417201376_thumb.png[/IMG][/URL]
[URL=http://imagecurl.com/viewer.php?file=43061859892798884493.png][IMG]http://imagecurl.com/images/43061859892798884493_thumb.png[/IMG][/URL]
[URL=http://imagecurl.com/viewer.php?file=82290276588008702367.png][IMG]http://imagecurl.com/images/82290276588008702367_thumb.png[/IMG][/URL]



[mediainfo]
Video
ID                                       : 0
Format                                   : MPEG-4 Visual
Format profile                           : Simple@L5
Format settings, BVOP                    : No
Format settings, QPel                    : No
Format settings, GMC                     : No warppoints
Format settings, Matrix                  : Default (H.263)
Codec ID                                 : XVID
Codec ID/Hint                            : XviD
Duration                                 : 1h 48mn
Bit rate                                 : 1 552 Kbps
Width                                    : 720 pixels
Height                                   : 384 pixels
Display aspect ratio                     : 1.85:1
Frame rate                               : 23.976 (23976/1000) fps
Color space                              : YUV
Chroma subsampling                       : 4:2:0
Bit depth                                : 8 bits
Scan type                                : Progressive
Compression mode                         : Lossy
Bits/(Pixel*Frame)                       : 0.234
Stream size                              : 1.18 GiB (80%)
Writing library                          : Lavc57.16.101

Audio
ID                                       : 1
Format                                   : AC-3
Format/Info                              : Audio Coding 3
Mode extension                           : CM (complete main)
Format settings, Endianness              : Big
Codec ID                                 : 2000
Duration                                 : 1h 48mn
Bit rate mode                            : Constant
Bit rate                                 : 384 Kbps
Channel(s)                               : 6 channels
Channel positions                        : Front: L C R, Side: L R, LFE
Sampling rate                            : 48.0 KHz
Frame rate                               : 31.250 fps (1536 spf)
Compression mode                         : Lossy
Stream size                              : 299 MiB (20%)
Alignment                                : Aligned on interleaves
Interleave, duration                     : 42 ms (1.00 video frame)
Interleave, preload duration             : 512 ms



[/mediainfo]
Beschreibung:
The.Do.Over.2016.WEBRip.XviD.AC3-FGT
Max und Charlie sind zwei Versager, die in ihrem Leben in einer Sackgasse angelangt sind. Also beschließen sie, ihren eigenen Tod vorzutäuschen und unter neuen Identitäten einen Neustart zu wagen. Doch dann stellt sich heraus, dass die Typen, die zu vorgeben zu sein, noch viel mehr Ärger am Hals haben.
Direct Download Links | DDL-Links

Ähnliche Releases der Kategorie