The.Do.Over.2016.WEBRip.XviD.MP3-FGT

1. Juni 2016 von
The.Do.Over.2016.WEBRip.XviD.MP3-FGT Warez-World
Aufrufe: 231 Hits
Vote 4 Us
Release:
The Do Over WEB-RIP
Genre:
Comedy
Laufzeit:
9 Min.
Größe:
1366 MB
Passwort:
Warez-World.org
Sprachen:
Video Codec:
MPEG-4 DivX / Xvid
Audio Stream:
Dolby Digital 5.1
Bewertung:
Video Vorschau:
Online Stream:
Info:
Zeige NFOVerberge NFO
[URL=http://imagecurl.com/viewer.php?file=90287131454028752934.png][IMG]http://imagecurl.com/images/90287131454028752934_thumb.png[/IMG][/URL]
[URL=http://imagecurl.com/viewer.php?file=73102690390332339333.png][IMG]http://imagecurl.com/images/73102690390332339333_thumb.png[/IMG][/URL]
[URL=http://imagecurl.com/viewer.php?file=06751761584136718461.png][IMG]http://imagecurl.com/images/06751761584136718461_thumb.png[/IMG][/URL]
[URL=http://imagecurl.com/viewer.php?file=94106817315513036017.png][IMG]http://imagecurl.com/images/94106817315513036017_thumb.png[/IMG][/URL]
[URL=http://imagecurl.com/viewer.php?file=75454377457860045709.png][IMG]http://imagecurl.com/images/75454377457860045709_thumb.png[/IMG][/URL]
[URL=http://imagecurl.com/viewer.php?file=44711035795433048272.png][IMG]http://imagecurl.com/images/44711035795433048272_thumb.png[/IMG][/URL]



[mediainfo]
Video
ID                                       : 0
Format                                   : MPEG-4 Visual
Format profile                           : Simple@L5
Format settings, BVOP                    : No
Format settings, QPel                    : No
Format settings, GMC                     : No warppoints
Format settings, Matrix                  : Default (H.263)
Codec ID                                 : XVID
Codec ID/Hint                            : XviD
Duration                                 : 1h 48mn
Bit rate                                 : 1 552 Kbps
Width                                    : 720 pixels
Height                                   : 384 pixels
Display aspect ratio                     : 1.85:1
Frame rate                               : 23.976 (23976/1000) fps
Color space                              : YUV
Chroma subsampling                       : 4:2:0
Bit depth                                : 8 bits
Scan type                                : Progressive
Compression mode                         : Lossy
Bits/(Pixel*Frame)                       : 0.234
Stream size                              : 1.18 GiB (88%)
Writing library                          : Lavc57.16.101

Audio
ID                                       : 1
Format                                   : MPEG Audio
Format version                           : Version 1
Format profile                           : Layer 3
Mode                                     : Joint stereo
Mode extension                           : MS Stereo
Codec ID                                 : 55
Codec ID/Hint                            : MP3
Duration                                 : 1h 48mn
Bit rate mode                            : Constant
Bit rate                                 : 192 Kbps
Channel(s)                               : 2 channels
Sampling rate                            : 48.0 KHz
Compression mode                         : Lossy
Stream size                              : 149 MiB (11%)
Alignment                                : Aligned on interleaves
Interleave, duration                     : 24 ms (0.58 video frame)
Interleave, preload duration             : 504 ms
Writing library                          : LAME3.99.5



[/mediainfo]
Beschreibung:
The.Do.Over.2016.WEBRip.XviD.MP3-FGT
Max und Charlie sind zwei Versager, die in ihrem Leben in einer Sackgasse angelangt sind. Also beschließen sie, ihren eigenen Tod vorzutäuschen und unter neuen Identitäten einen Neustart zu wagen. Doch dann stellt sich heraus, dass die Typen, die zu vorgeben zu sein, noch viel mehr Ärger am Hals haben.
Direct Download Links | DDL-Links

Ähnliche Releases der Kategorie