2047.Sights.Of.Death.German.2014.AC3.BDRiP.XVID-OMS

21. April 2016 von
2047.Sights.Of.Death.German.2014.AC3.BDRiP.XVID-OMS Warez-World
Aufrufe: 33 Hits
Vote 4 Us
Release:
2047 Sights Of Death BD-RIP
Genre:
Thriller
Laufzeit:
90 Min.
Größe:
965 MB
Passwort:
Warez-World.org
Sprachen:
Video Codec:
MPEG-4 DivX / Xvid
Audio Stream:
Dolby Digital 5.1
Bewertung:
Video Vorschau:
Online Stream:
Info:
Zeige NFOVerberge NFO
General
Format                                   : AVI
Format/Info                              : Audio Video Interleave
File size                                : 965 MiB
Duration                                 : 1h 29mn
Overall bit rate                         : 1 502 Kbps
Movie name                               : 2047.Sights.Of.Death.German.2014.AC3.BDRiP.XVID-OMS
Genre                                    : Action
Recorded date                            : 2014
Writing application                      : Lavf57.2.100

Video
ID                                       : 0
Format                                   : MPEG-4 Visual
Format settings, BVOP                    : No
Format settings, QPel                    : No
Format settings, GMC                     : No warppoints
Format settings, Matrix                  : Default (H.263)
Codec ID                                 : DIVX
Codec ID/Info                            : Project Mayo
Codec ID/Hint                            : DivX 4
Duration                                 : 1h 29mn
Bit rate                                 : 1 043 Kbps
Width                                    : 720 pixels
Height                                   : 300 pixels
Display aspect ratio                     : 2.40:1
Frame rate                               : 24.000 fps
Color space                              : YUV
Chroma subsampling                       : 4:2:0
Bit depth                                : 8 bits
Scan type                                : Progressive
Compression mode                         : Lossy
Bits/(Pixel*Frame)                       : 0.201
Stream size                              : 670 MiB (69%)
Writing library                          : XviD 67

Audio
ID                                       : 1
Format                                   : AC-3
Format/Info                              : Audio Coding 3
Mode extension                           : CM (complete main)
Format settings, Endianness              : Big
Codec ID                                 : 2000
Duration                                 : 1h 29mn
Bit rate mode                            : Constant
Bit rate                                 : 448 Kbps
Channel(s)                               : 6 channels
Channel positions                        : Front: L C R, Side: L R, LFE
Sampling rate                            : 48.0 KHz
Bit depth                                : 16 bits
Compression mode                         : Lossy
Stream size                              : 288 MiB (30%)
Alignment                                : Aligned on interleaves
Interleave, duration                     : 32 ms (0.77 video frame)
Language                                 : German

Beschreibung:
2047.Sights.Of.Death.German.2014.AC3.BDRiP.XVID-OMS
Wir schreiben das Jahr 2047: Der gesamte Planet Erde wird von dem totalitären Confederate Central Government kurz CCG regiert. Rebellenführer Sponge will der tyrannischen Zentralregierung Paroli bieten und schickt den Green-War-Rebell Ryan Willburn auf eine Mission, um Beweise für die abscheulichen Verbrechen der CCG zu sammeln. Doch die Konföderierten stellen sich gegen den Rebellen. Ryan muss sich bald vor dem finsteren Colonel Asimov, Major Anderson und einer Gruppe von üblen Söldnern unter Führung von Lobo in Acht nehmen. Die Mission läuft völlig aus dem Ruder, als er einer mutierten Überlebenden der CCG-Rebellion begegnet. Sie schwört, ihm zu helfen, um das von der Welt zu retten, was davon noch übrig ist. Kann er ihr trauen?
Direct Download Links | DDL-Links

Ähnliche Releases der Kategorie