69.Tage.Hoffnung.2015.German.AC3.5.1.BDRip.XviD-iNTERFilm

20. April 2016 von
69.Tage.Hoffnung.2015.German.AC3.5.1.BDRip.XviD-iNTERFilm Warez-World
Aufrufe: 14 Hits
Vote 4 Us
Release:
69 Tage Hoffnung BD-RIP
Genre:
Drama
Laufzeit:
127 Min.
Größe:
1835 MB
Passwort:
Warez-World.org
Sprachen:
Video Codec:
MPEG-4 DivX / Xvid
Audio Stream:
Dolby Digital 5.1
Bewertung:
Video Vorschau:
Online Stream:
Info:
Zeige NFOVerberge NFO
General
Format                                   : AVI
Format/Info                              : Audio Video Interleave
Format profile                           : OpenDML
Format settings                          : rec
File size                                : 1.79 GiB
Duration                                 : 2h 7mn
Overall bit rate                         : 2 017 Kbps
Writing application                      : AVI-Mux GUI 1.17.8.3, Feb 16 201019:42:50

Video
ID                                       : 0
Format                                   : xvid
Codec ID                                 : xvid
Duration                                 : 2h 7mn
Bit rate                                 : 1 499 Kbps
Width                                    : 720 pixels
Height                                   : 304 pixels
Display aspect ratio                     : 2.35:1
Frame rate                               : 23.976 fps
Bits/(Pixel*Frame)                       : 0.286
Stream size                              : 1.33 GiB (74%)

Audio #1
ID                                       : 1
Format                                   : AC-3
Format/Info                              : Audio Coding 3
Mode extension                           : CM (complete main)
Format settings, Endianness              : Big
Codec ID                                 : 2000
Duration                                 : 2h 7mn
Bit rate mode                            : Constant
Bit rate                                 : 384 Kbps
Channel(s)                               : 6 channels
Channel positions                        : Front: L C R, Side: L R, LFE
Sampling rate                            : 48.0 KHz
Compression mode                         : Lossy
Stream size                              : 349 MiB (19%)
Alignment                                : Aligned on interleaves
Interleave, duration                     : 64 ms (1.53 video frames)
Interleave, preload duration             : 192 ms
Title                                    : mp-69tage-xsd

Audio #2
ID                                       : 2
Format                                   : MPEG Audio
Format version                           : Version 1
Format profile                           : Layer 3
Mode                                     : Joint stereo
Mode extension                           : MS Stereo
Codec ID                                 : 55
Codec ID/Hint                            : MP3
Duration                                 : 2h 7mn
Bit rate mode                            : Constant
Bit rate                                 : 128 Kbps
Channel(s)                               : 2 channels
Sampling rate                            : 44.1 KHz
Compression mode                         : Lossy
Stream size                              : 116 MiB (6%)
Alignment                                : Aligned on interleaves
Interleave, duration                     : 436 ms (10.46 video frames)
Interleave, preload duration             : 208 ms

Beschreibung:
69.Tage.Hoffnung.2015.German.AC3.5.1.BDRip.XviD-iNTERFilm
2010 richteten sich die Augen der gesamten Welt auf Chile, als dort beim Einsturz einer Gold- und Kupfermine 33 Bergleute lebendig begraben wurden. In den folgenden 69 Tagen bemühte sich ein internationales Team verzweifelt und unermüdlich, die eingeschlossenen Männer zu retten. Unterdessen warteten in banger Hoffnung nicht nur ihre Familien und Freunde, sondern Millionen Menschen, die sie gar nicht kannten. Doch 200 Stockwerke unter der Erdoberfläche wurde die Zeit aufgrund mangelnder Verpflegung sehr schnell knapp. Der Film erzählt eine Geschichte von Durchhaltevermögen, persönlicher Verwandlung und dem Triumph der Menschlichkeit - in den tiefsten Abgründen der Erde erleben wir die privaten Schicksale und die seelische Belastung der im Stollen gefangenen Männer, die großen Mut aufbrachten und sich einfach weigerten aufzugeben.
Direct Download Links | DDL-Links

Ähnliche Releases der Kategorie