69.Tage.Hoffnung.German.2015.AC3.BDRiP.XVID-OMS

21. April 2016 von
69.Tage.Hoffnung.German.2015.AC3.BDRiP.XVID-OMS Warez-World
Aufrufe: 28 Hits
Vote 4 Us
Release:
69 Tage Hoffnung BD-RIP
Genre:
Drama
Laufzeit:
127 Min.
Größe:
1892 MB
Passwort:
Warez-World.org
Sprachen:
Video Codec:
MPEG-4 DivX / Xvid
Audio Stream:
Dolby Digital 5.1
Bewertung:
Video Vorschau:
Online Stream:
Info:
Zeige NFOVerberge NFO
General
Format                                   : AVI
Format/Info                              : Audio Video Interleave
Format profile                           : OpenDML
File size                                : 1.85 GiB
Duration                                 : 2h 7mn
Overall bit rate                         : 2 080 Kbps
Movie name                               : 69.Tage.Hoffnung.German.2015.AC3.BDRiP.XVID-OMS
Genre                                    : Biografie
Recorded date                            : 2015
Writing application                      : Lavf57.2.100

Video
ID                                       : 0
Format                                   : MPEG-4 Visual
Format settings, BVOP                    : No
Format settings, QPel                    : No
Format settings, GMC                     : No warppoints
Format settings, Matrix                  : Default (H.263)
Codec ID                                 : DIVX
Codec ID/Info                            : Project Mayo
Codec ID/Hint                            : DivX 4
Duration                                 : 2h 7mn
Bit rate                                 : 1 621 Kbps
Width                                    : 720 pixels
Height                                   : 300 pixels
Display aspect ratio                     : 2.40:1
Frame rate                               : 24.000 fps
Color space                              : YUV
Chroma subsampling                       : 4:2:0
Bit depth                                : 8 bits
Scan type                                : Progressive
Compression mode                         : Lossy
Bits/(Pixel*Frame)                       : 0.313
Stream size                              : 1.44 GiB (78%)
Writing library                          : XviD 67

Audio
ID                                       : 1
Format                                   : AC-3
Format/Info                              : Audio Coding 3
Mode extension                           : CM (complete main)
Format settings, Endianness              : Big
Codec ID                                 : 2000
Duration                                 : 2h 7mn
Bit rate mode                            : Constant
Bit rate                                 : 448 Kbps
Channel(s)                               : 6 channels
Channel positions                        : Front: L C R, Side: L R, LFE
Sampling rate                            : 48.0 KHz
Bit depth                                : 16 bits
Compression mode                         : Lossy
Stream size                              : 408 MiB (22%)
Alignment                                : Aligned on interleaves
Interleave, duration                     : 32 ms (0.77 video frame)
Language                                 : German

Beschreibung:
69.Tage.Hoffnung.German.2015.AC3.BDRiP.XVID-OMS
2010 richteten sich die Augen der gesamten Welt auf Chile, als dort beim Einsturz einer Gold- und Kupfermine 33 Bergleute lebendig begraben wurden. In den folgenden 69 Tagen bemühte sich ein internationales Team verzweifelt und unermüdlich, die eingeschlossenen Männer zu retten. Unterdessen warteten in banger Hoffnung nicht nur ihre Familien und Freunde, sondern Millionen Menschen, die sie gar nicht kannten. Doch 200 Stockwerke unter der Erdoberfläche wurde die Zeit aufgrund mangelnder Verpflegung sehr schnell knapp. Der Film erzählt eine Geschichte von Durchhaltevermögen, persönlicher Verwandlung und dem Triumph der Menschlichkeit - in den tiefsten Abgründen der Erde erleben wir die privaten Schicksale und die seelische Belastung der im Stollen gefangenen Männer, die großen Mut aufbrachten und sich einfach weigerten aufzugeben.
Direct Download Links | DDL-Links

Ähnliche Releases der Kategorie