Alice.im.Wunderland.2.Hinter.den.Spiegeln.2016.German.DTS.DL.1080p.BluRay.x264-MULTiPLEX

29. September 2016 von
Alice.im.Wunderland.2.Hinter.den.Spiegeln.2016.German.DTS.DL.1080p.BluRay.x264-MULTiPLEX Warez-World
Aufrufe: 77 Hits
Vote 4 Us
Release:
Alice im Wunderland 2 Hinter den Spiegeln BD
Genre:
Fantasy
Größe:
12678 MB
Passwort:
Warez-World.org
Sprachen:
Video Codec:
MPEG-4 H.264 / AVC
Audio Stream:
DTS 5.1
Bewertung:
Video Vorschau:
Online Stream:
Info:
Zeige NFOVerberge NFO
Allgemein
Unique ID                                : 211593211952795762454536590011066113246 (0x9F2F5ECB83E83746BA70F837A6365CDE)
Complete name                            : C:WORKDownloadsAIW2HDS2016GDD1BX-MULAIW2HDS2016GDD1BX-MULAlice im Wunderland 2 Hinter den Spiegeln 2016 German DTS DL 1080p BluRay x264 - MULTiPLEXmp-alice2-1080p.mkv
Format                                   : Matroska
Format version                           : Version 4 / Version 2
File size                                : 12,5 GiB
Duration                                 : 1 h 52 min
Overall bit rate                         : 15,9 Mb/s
Encoded date                             : UTC 2016-09-29 03:24:55
Writing application                      : mkvmerge v8.0.0 ('Til The Day That I Die') 64bit
Writing library                          : libebml v1.3.1 + libmatroska v1.4.2

Video
ID                                       : 1
Format                                   : AVC
Format/Info                              : Advanced Video Codec
Format profile                           : High@L4.1
Format settings, CABAC                   : Ja
Format settings, ReFrames                : 5 frames
Codec ID                                 : V_MPEG4/ISO/AVC
Duration                                 : 1 h 52 min
Bit rate                                 : 12,8 Mb/s
Width                                    : 1 920 Pixel
Height                                   : 1 040 Pixel
Display aspect ratio                     : 1,85:1
Frame rate mode                          : konstant
Frame rate                               : 23,976 (24000/1001) FPS
Color space                              : YUV
Chroma subsampling                       : 4:2:0
Bit depth                                : 8 bits
Scan type                                : progressiv
Bits/(Pixel*Frame)                       : 0.268
Stream size                              : 10,1 GiB (81%)
Writing library                          : x264 core 148 r2705 3f5ed56
Encoding settings                        : cabac=1 / ref=5 / deblock=1:-1:-1 / analyse=0x3:0x113 / me=umh / subme=11 / psy=1 / psy_rd=1.00:0.15 / mixed_ref=1 / me_range=16 / chroma_me=1 / trellis=2 / 8x8dct=1 / cqm=0 / deadzone=21,11 / fast_pskip=0 / chroma_qp_offset=-3 / threads=24 / lookahead_threads=2 / sliced_threads=0 / nr=0 / decimate=1 / interlaced=0 / bluray_compat=0 / constrained_intra=0 / bframes=5 / b_pyramid=2 / b_adapt=2 / b_bias=0 / direct=3 / weightb=1 / open_gop=0 / weightp=2 / keyint=250 / keyint_min=23 / scenecut=40 / intra_refresh=0 / rc_lookahead=40 / rc=crf / mbtree=1 / crf=18.0 / qcomp=0.60 / qpmin=10 / qpmax=69 / qpstep=4 / ip_ratio=1.40 / aq=1:1.00
Language                                 : Englisch
Default                                  : Ja
Forced                                   : Nein

Audio #1
ID                                       : 2
Format                                   : DTS
Format/Info                              : Digital Theater Systems
Mode                                     : 16
Format settings, Endianness              : Big
Codec ID                                 : A_DTS
Duration                                 : 1 h 52 min
Bit rate mode                            : konstant
Bit rate                                 : 1 509 kb/s
Channel(s)                               : 6 Kanäle
Channel positions                        : Front: L C R, Side: L R, LFE
Sampling rate                            : 48,0 kHz
Frame rate                               : 93,750 FPS (512 spf)
Bit depth                                : 24 bits
Stream size                              : 1,19 GiB (10%)
Language                                 : Deutsch
Default                                  : Ja
Forced                                   : Ja

Audio #2
ID                                       : 3
Format                                   : DTS
Format/Info                              : Digital Theater Systems
Mode                                     : 16
Format settings, Endianness              : Big
Codec ID                                 : A_DTS
Duration                                 : 1 h 52 min
Bit rate mode                            : konstant
Bit rate                                 : 1 509 kb/s
Channel(s)                               : 6 Kanäle
Channel positions                        : Front: L C R, Side: L R, LFE
Sampling rate                            : 48,0 kHz
Frame rate                               : 93,750 FPS (512 spf)
Bit depth                                : 24 bits
Stream size                              : 1,19 GiB (10%)
Language                                 : Englisch
Default                                  : Nein
Forced                                   : Nein

Text #1
ID                                       : 4
Format                                   : PGS
Muxing mode                              : zlib
Codec ID                                 : S_HDMV/PGS
Codec ID/Info                            : Picture based subtitle format used on BDs/HD-DVDs
Duration                                 : 1 h 42 min
Bit rate                                 : 41 b/s
Count of elements                        : 10
Stream size                              : 31,0 KiB (0%)
Title                                    : ger forced
Language                                 : Deutsch
Default                                  : Ja
Forced                                   : Ja

Text #2
ID                                       : 5
Format                                   : PGS
Muxing mode                              : zlib
Codec ID                                 : S_HDMV/PGS
Codec ID/Info                            : Picture based subtitle format used on BDs/HD-DVDs
Duration                                 : 3s 3 ms
Bit rate                                 : 25,0 kb/s
Count of elements                        : 4
Stream size                              : 9,15 KiB (0%)
Title                                    : eng forced
Language                                 : Englisch
Default                                  : Nein
Forced                                   : Nein

Text #3
ID                                       : 6
Format                                   : UTF-8
Codec ID                                 : S_TEXT/UTF8
Codec ID/Info                            : UTF-8 Plain Text
Duration                                 : 1 h 42 min
Bit rate                                 : 0 b/s
Count of elements                        : 5
Stream size                              : 142 Bytes (0%)
Title                                    : ger forced
Language                                 : Deutsch
Default                                  : Nein
Forced                                   : Nein

Text #4
ID                                       : 7
Format                                   : UTF-8
Codec ID                                 : S_TEXT/UTF8
Codec ID/Info                            : UTF-8 Plain Text
Duration                                 : 3s 3 ms
Bit rate                                 : 98 b/s
Count of elements                        : 2
Stream size                              : 37,0 Bytes (0%)
Title                                    : eng forced
Language                                 : Englisch
Default                                  : Nein
Forced                                   : Nein

Text #5
ID                                       : 8
Format                                   : PGS
Muxing mode                              : zlib
Codec ID                                 : S_HDMV/PGS
Codec ID/Info                            : Picture based subtitle format used on BDs/HD-DVDs
Duration                                 : 1 h 51 min
Bit rate                                 : 8 501 b/s
Count of elements                        : 2658
Stream size                              : 6,79 MiB (0%)
Title                                    : ger full
Language                                 : Deutsch
Default                                  : Nein
Forced                                   : Nein

Text #6
ID                                       : 9
Format                                   : PGS
Muxing mode                              : zlib
Codec ID                                 : S_HDMV/PGS
Codec ID/Info                            : Picture based subtitle format used on BDs/HD-DVDs
Duration                                 : 1 h 52 min
Bit rate                                 : 11,5 kb/s
Count of elements                        : 3634
Stream size                              : 9,18 MiB (0%)
Title                                    : eng full
Language                                 : Englisch
Default                                  : Nein
Forced                                   : Nein

Text #7
ID                                       : 10
Format                                   : UTF-8
Codec ID                                 : S_TEXT/UTF8
Codec ID/Info                            : UTF-8 Plain Text
Duration                                 : 1 h 51 min
Bit rate                                 : 42 b/s
Count of elements                        : 1329
Stream size                              : 34,8 KiB (0%)
Title                                    : ger full
Language                                 : Deutsch
Default                                  : Nein
Forced                                   : Nein

Text #8
ID                                       : 11
Format                                   : UTF-8
Codec ID                                 : S_TEXT/UTF8
Codec ID/Info                            : UTF-8 Plain Text
Duration                                 : 1 h 52 min
Bit rate                                 : 51 b/s
Count of elements                        : 1817
Stream size                              : 42,0 KiB (0%)
Title                                    : eng full
Language                                 : Englisch
Default                                  : Nein
Forced                                   : Nein

Menü
00:00:00.000                             : en:00:00:00.000
00:04:33.190                             : en:00:04:33.190
00:07:24.235                             : en:00:07:24.235
00:12:07.435                             : en:00:12:07.435
00:16:39.790                             : en:00:16:39.790
00:22:47.616                             : en:00:22:47.616
00:24:59.623                             : en:00:24:59.623
00:30:18.233                             : en:00:30:18.233
00:35:29.794                             : en:00:35:29.794
00:41:32.990                             : en:00:41:32.990
00:45:20.051                             : en:00:45:20.051
00:51:35.676                             : en:00:51:35.676
00:54:11.039                             : en:00:54:11.039
00:57:40.123                             : en:00:57:40.123
01:04:18.521                             : en:01:04:18.521
01:09:18.988                             : en:01:09:18.988
01:12:46.279                             : en:01:12:46.279
01:18:07.391                             : en:01:18:07.391
01:23:20.245                             : en:01:23:20.245
01:27:34.749                             : en:01:27:34.749
01:32:15.947                             : en:01:32:15.947
01:36:40.461                             : en:01:36:40.461
01:40:12.590                             : en:01:40:12.590
01:43:14.814                             : en:01:43:14.814
Beschreibung:
Alice.im.Wunderland.2.Hinter.den.Spiegeln.2016.German.DTS.DL.1080p.BluRay.x264-MULTiPLEX
Alice Kingsleigh (Mia Wasikowska) hat die letzten Jahre damit zugebracht, in die Fußstapfen ihres Vaters zu treten und über die sieben Weltmeere zu segeln. Wieder zurück in London findet sie einen magischen Spiegel und kehrt in die fantastische Welt von Unterland zurück. Dort trifft sie auf alte Bekannte: das Weiße Kaninchen (Michael Sheen), Absolem (Alan Rickman), die Grinsekatze (Stephen Fry) und natürlich den Verrückten Hutmacher (Johnny Depp), der aber nicht mehr er selbst ist – er hat sein Mehrsein verloren. Um ihn zu retten, schickt die Weiße Königin (Anne Hathaway) Alice los, nach der Chronosphäre zu suchen, einer Metallkugel im Inneren der Großen Uhr, von der alle Zeit ausgeht. Auf ihrer Reise in die Vergangenheit trifft Alice auf Freunde - und Feinde - in verschiedenen Stadien ihres Lebens. Es ist ein gefahrenvoller Wettlauf mit der Zeit, um den Verrückten Hutmacher zu retten, bevor sein letztes Stündlein geschlagen hat… im wahrsten Sinne des Wortes!
Direct Download Links | DDL-Links

Ähnliche Releases der Kategorie