The.Angry.Birds.Movie.2016.720P.TC.Unmarked.Masteredition.x264.Hive-CM8

27. Mai 2016 von
The.Angry.Birds.Movie.2016.720P.TC.Unmarked.Masteredition.x264.Hive-CM8 Warez-World
Aufrufe: 107 Hits
Vote 4 Us
Release:
The Angry Birds Movie TC
Genre:
Animation
Laufzeit:
98 Min.
Größe:
2996 MB
Passwort:
Warez-World.org
Sprachen:
Video Codec:
MPEG-4 H.264 / AVC
Audio Stream:
Dolby Digital 5.1
Bewertung:
Video Vorschau:
Online Stream:
Info:
Zeige NFOVerberge NFO
[center][img]http://i.imgur.com/s1RMoPu.jpg[/img]

 
[color=blue][size=4][b]The.Angry.Birds.Movie.2016.720P.TC.Unmarked.Masteredition.x264.Hive-CM8.mkv[/b][/size][/color]

Thx Hive

CM8 Doing It Right The First Time 

Sources:

Video: Unmarked 720p Chinese Telecine 
Audio: Direct Line  (CPG/Exclusive)
thx


Notes:
Another special Encode and first on the net completely unmarked,
tried to get a source file that doesnt have watermarkings, took me a day longer to get, but the result is excellent,
its a masterpiece from this source. Have done 720p and avi for this,looks and sounds perfect a real cinemafeeling.
Quality is tested and optimized to look perfect on a 85" 4K TV.


Encode:
The Chinese telecine needed some work,added brightness,contrast,and fixed colours.
Nothing is cut from the movie

Line Audio as usually from cpg, was great, fixed Monosourround to stereo,added some depth and bass, sounds very nice now
lipsynced to my video

got very nice and will do me till retail
enjoy

PS: waiting for better vid for xmen,portuguese is bad,russian is good but too dark, both incomplete too,not sure yet
    perhaps the chinese come through, lets wait and see

Video: 1280x704 @bitrate 4000-8000
Audio: Line AC3 2.0 Stereo
Sample: yes included


http://www.imdb.com/title/tt1985949/


General
Complete name                  : The.Angry.Birds.Movie.2016.720P.TC.Unmarked.Masteredition.x264.Hive-CM8.mkv
Format                         : Matroska
Format version                 : Version 2
File size                      : 2.87 GiB
Duration                       : 1h 36mn
Overall bit rate mode          : Variable
Overall bit rate               : 4 252 Kbps
Encoded date                   : UTC 2016-05-26 11:34:13
Writing application            : mkvmerge v5.6.0 ('Kenya Kane') built on May 27 2012 16:44:04
Writing library                : libebml v1.2.3 + libmatroska v1.3.0

Video
ID                             : 1
Format                         : AVC
Format/Info                    : Advanced Video Codec
Format profile                 : High@L3.1
Format settings, CABAC         : Yes
Format settings, ReFrames      : 4 frames
Muxing mode                    : Header stripping
Codec ID                       : V_MPEG4/ISO/AVC
Duration                       : 1h 36mn
Bit rate mode                  : Variable
Bit rate                       : 3 911 Kbps
Maximum bit rate               : 8 000 Kbps
Width                          : 1 280 pixels
Height                         : 704 pixels
Display aspect ratio           : 16:9
Frame rate mode                : Constant
Frame rate                     : 29.970 fps
Standard                       : NTSC
Color space                    : YUV
Chroma subsampling             : 4:2:0
Bit depth                      : 8 bits
Scan type                      : Progressive
Bits/(Pixel*Frame)             : 0.145
Stream size                    : 2.64 GiB (92%)
Language                       : English
Default                        : Yes
Forced                         : No
Color primaries                : BT.709
Transfer characteristics       : BT.709
Matrix coefficients            : BT.709
Color range                    : Limited

Audio
ID                             : 2
Format                         : AC-3
Format/Info                    : Audio Coding 3
Mode extension                 : CM (complete main)
Format settings, Endianness    : Big
Muxing mode                    : Header stripping
Codec ID                       : A_AC3
Duration                       : 1h 36mn
Bit rate mode                  : Constant
Bit rate                       : 256 Kbps
Channel(s)                     : 2 channels
Channel positions              : Front: L R
Sampling rate                  : 48.0 KHz
Bit depth                      : 16 bits
Compression mode               : Lossy
Delay relative to video        : 26ms
Stream size                    : 177 MiB (6%)
Language                       : English
Default                        : Yes
Forced                         : No






Screens 

[img]http://i.imgur.com/aQftLzr.jpg[/img]
[img]http://i.imgur.com/dufYxTh.png[/img]
[img]http://i.imgur.com/2N4zeJC.jpg[/img]
[img]http://i.imgur.com/HR8saB8.jpg[/img]
[img]http://i.imgur.com/mxLtoiP.jpg[/img]
[img]http://i.imgur.com/1oH5Y8p.jpg[/img]
[img]http://i.imgur.com/wGHDYSb.png[/img]
[img]http://i.imgur.com/lIVIokU.jpg[/img]



Plot

Find out why the birds are so angry. When an island populated by happy, flightless birds is visited by mysterious green piggies, it's up to three unlikely outcasts - Red, Chuck and Bomb - to figure out what the pigs are up to. 


Cast overview, first billed only: 

Jason Sudeikis	    ...	Red (voice)
Josh Gad	    ...	Chuck (voice)
Danny McBride	    ...	Bomb (voice)
Maya Rudolph	    ...	Matilda (voice)
Bill Hader	    ...	Leonard (voice)
Peter Dinklage	    ...	Mighty Eagle (voice)
Sean Penn	    ...	Terence (voice)
Keegan-Michael Key  ...	Judge Peckinpah (voice)
Kate McKinnon	    ...	Stella / Eva the Birthday Mom (voice)
Tony Hale	    ...	Ross / Cyrus / Mime (voice)
Hannibal Buress	    ...	Edward the Birthday Dad (voice)
Ike Barinholtz	    ...	Tiny (voice)
Tituss Burgess	    ...	Photog (voice)
Ian Hecox	    ...	Bubbles (voice)
Anthony Padilla	    ...	Hal (voice)

LOOKING FOR ANYTHING YOU WANT TO LOOK AND SOUND BETTER

COME FIND US WE DONT BITE[/center]
Beschreibung:
The.Angry.Birds.Movie.2016.720P.TC.Unmarked.Masteredition.x264.Hive-CM8
Der Film entführt uns auf eine Insel, die ausschließlich von glücklichen, flugunfähigen Vögeln bewohnt wird - oder zumindest fast. In diesem Paradies gehörten Red, ein Vogel mit der Neigung zu cholerischen Wutausbrüchen, der blitzschnelle Chuck und der unberechenbare Bombe schon immer zu den Außenseitern. Doch als die Insel eines Tages von mysteriösen grünen Schweinchen besucht wird, liegt es an diesen drei Ausgestoßenen, die unterschiedlicher nicht sein könnten, herauszufinden, was die Schweine im Schilde führen.
Direct Download Links | DDL-Links

Ähnliche Releases der Kategorie