27. Mai 2016 von
The.Angry.Birds.Movie.2016.TC.Unmarked.Masteredition.XVID.AC3.HQ.Hive-CM8 Warez-World
Aufrufe: 25 Hits
Vote 4 Us
The Angry Birds Movie TC
98 Min.
1561 MB
Video Codec:
MPEG-4 DivX / Xvid
Audio Stream:
Dolby Digital 5.1
Zeige NFOVerberge NFO

Thx Hive

CM8 Doing It Right The First Time


Video: Unmarked 720p Chinese Telecine
Audio: Direct Line (CPG/Exclusive)

Another special Encode and first on the net completely unmarked,
tried to get a source file that doesnt have watermarkings, took me a day longer to get, but the
result is excellent,
its a masterpiece from this source. Have done 720p and avi for this,looks and sounds perfect a real cinemafeeling.
Quality is tested and optimized to look perfect on a 85" 4K TV.

The Chinese telecine needed some work,added brightness,contrast,and fixed colours.
Nothing is cut from the movie

Line Audio as usually from cpg, was great, fixed Monosourround to stereo,added some depth and bass, sounds very nice now
lipsynced to my video

got very nice and will do me till retail

PS: waiting for better vid for xmen,portuguese is bad,russian is good but too dark, both incomplete too,not sure yet
perhaps the chinese come through, lets wait and see

Video: 720x400 @bitrate 2000 2pass
Audio: Line AC3 2.0 Stereo
Sample: yes included

Complete name : The.Angry.Birds.Movie.2016.TC.Unmarked.Masteredition.XVID.AC3.HQ.Hive-CM8.avi
Format : AVI
Format/Info : Audio Video Interleave
File size : 1.52 GiB
Duration : 1h 36mn
Overall bit rate : 2 261 Kbps
Writing application : Nandub v1.0rc2
Writing library : Nandub build 1853/release

ID : 0
Format : MPEG-4 Visual
Format profile : Advanced Simple@L5
Format settings, BVOP : 2
Format settings, QPel : Yes
Format settings, GMC : No warppoints
Format settings, Matrix : Default (H.263)
Muxing mode : Packed bitstream
Codec ID : XVID
Codec ID/Hint : XviD
Duration : 1h 36mn
Bit rate : 1 993 Kbps
Width : 720 pixels
Height : 400 pixels
Display aspect ratio : 16:9
Frame rate : 29.970 fps
Color space : YUV
Chroma subsampling : 4:2:0
Bit depth : 8 bits
Scan type : Progressive
Compression mode : Lossy
Bits/(Pixel*Frame) : 0.231
Stream size : 1.34 GiB (88%)
Writing library : XviD 1.2.1 (UTC 2008-12-04)

ID : 1
Format : AC-3
Format/Info : Audio Coding 3
Mode extension : CM (complete main)
Format settings, Endianness : Big
Codec ID : 2000
Duration : 1h 36mn
Bit rate mode : Constant
Bit rate : 256 Kbps
Channel(s) : 2 channels
Channel positions : Front: L R
Sampling rate : 48.0 KHz
Bit depth : 16 bits
Compression mode : Lossy
Stream size : 177 MiB (11%)
Alignment : Split accross interleaves
Interleave, duration : 33 ms (1.00 video frame)
Interleave, preload duration : 500 ms
Der Film entführt uns auf eine Insel, die ausschließlich von glücklichen, flugunfähigen Vögeln bewohnt wird - oder zumindest fast. In diesem Paradies gehörten Red, ein Vogel mit der Neigung zu cholerischen Wutausbrüchen, der blitzschnelle Chuck und der unberechenbare Bombe schon immer zu den Außenseitern. Doch als die Insel eines Tages von mysteriösen grünen Schweinchen besucht wird, liegt es an diesen drei Ausgestoßenen, die unterschiedlicher nicht sein könnten, herauszufinden, was die Schweine im Schilde führen.
Direct Download Links | DDL-Links

Ähnliche Releases der Kategorie