Arrietty.Die.wundersame.Welt.der.Borger.Movie.German.DL.BDRiP.XviD-AST4u

18. August 2016 von
Arrietty.Die.wundersame.Welt.der.Borger.Movie.German.DL.BDRiP.XviD-AST4u Warez-World
Aufrufe: 98 Hits
Vote 4 Us
Release:
Arrietty: Die wundersame Welt der Borger BD-RIP
Genre:
Anime
Laufzeit:
94 Min.
Größe:
1144 MB
Passwort:
Warez-World.org
Sprachen:
Video Codec:
MPEG-4 DivX / Xvid
Audio Stream:
Stereo
Bewertung:
Video Vorschau:
Online Stream:
Info:
Zeige NFOVerberge NFO
General
Format                                   : Matroska
Format version                           : Version 4 / Version 2
File size                                : 1.12 GiB
Duration                                 : 1h 34mn
Overall bit rate                         : 1 700 Kbps
Encoded date                             : UTC 2016-08-03 23:41:54
Writing application                      : mkvmerge v8.2.0 ('World of Adventure') 32bit
Writing library                          : libebml v1.3.1 + libmatroska v1.4.2
DURATION                                 : 01:34:06.744000000
NUMBER_OF_FRAMES                         : 235281
NUMBER_OF_BYTES                          : 135521856
_STATISTICS_WRITING_APP                  : mkvmerge v8.2.0 ('World of Adventure') 32bit
_STATISTICS_WRITING_DATE_UTC             : 2016-08-03 23:41:54
_STATISTICS_TAGS                         : BPS DURATION NUMBER_OF_FRAMES NUMBER_OF_BYTES

Video
ID                                       : 2
Format                                   : MPEG-4 Visual
Format settings, BVOP                    : 2
Format settings, QPel                    : No
Format settings, GMC                     : No warppoints
Format settings, Matrix                  : Default (MPEG)
Codec ID                                 : V_MS/VFW/FOURCC / XVID
Codec ID/Hint                            : XviD
Duration                                 : 1h 34mn
Bit rate                                 : 1 282 Kbps
Width                                    : 720 pixels
Height                                   : 408 pixels
Display aspect ratio                     : 16:9
Frame rate mode                          : Constant
Frame rate                               : 23.976 fps
Color space                              : YUV
Chroma subsampling                       : 4:2:0
Bit depth                                : 8 bits
Scan type                                : Progressive
Compression mode                         : Lossy
Bits/(Pixel*Frame)                       : 0.182
Stream size                              : 863 MiB (75%)
Writing library                          : XviD 67
Default                                  : Yes
Forced                                   : No

Audio #1
ID                                       : 3
Format                                   : MPEG Audio
Format version                           : Version 1
Format profile                           : Layer 3
Mode                                     : Joint stereo
Mode extension                           : MS Stereo
Codec ID                                 : A_MPEG/L3
Codec ID/Hint                            : MP3
Duration                                 : 1h 34mn
Bit rate mode                            : Constant
Bit rate                                 : 192 Kbps
Channel(s)                               : 2 channels
Sampling rate                            : 48.0 KHz
Compression mode                         : Lossy
Stream size                              : 129 MiB (11%)
Writing library                          : LAME3.99r
Encoding settings                        : -m j -V 4 -q 2 -lowpass 18.6 -b 192
Language                                 : German
Default                                  : Yes
Forced                                   : No

Audio #2
ID                                       : 4
Format                                   : MPEG Audio
Format version                           : Version 1
Format profile                           : Layer 3
Mode                                     : Joint stereo
Mode extension                           : MS Stereo
Codec ID                                 : A_MPEG/L3
Codec ID/Hint                            : MP3
Duration                                 : 1h 34mn
Bit rate mode                            : Constant
Bit rate                                 : 192 Kbps
Channel(s)                               : 2 channels
Sampling rate                            : 48.0 KHz
Compression mode                         : Lossy
Stream size                              : 129 MiB (11%)
Writing library                          : LAME3.99r
Encoding settings                        : -m j -V 4 -q 2 -lowpass 18.6 -b 192
Language                                 : Japanese
Default                                  : No
Forced                                   : No

Text
ID                                       : 1
Format                                   : PGS
Muxing mode                              : zlib
Codec ID                                 : S_HDMV/PGS
Codec ID/Info                            : Picture based subtitle format used on BDs/HD-DVDs
Language                                 : German
Default                                  : Yes
Forced                                   : No

Beschreibung:
Arrietty.Die.wundersame.Welt.der.Borger.Movie.German.DL.BDRiP.XviD-AST4u
In den Vororten von Tokio, versteckt unter dem Boden eines alten Hauses, inmitten eines riesigen Gartens, lebt die winzig kleine Arrietty mit ihrer Familie. Die Dinge, die sie zum Leben benötigen, borgen sie sich von den Menschen und dabei gilt es, so Manches zu beachten. Arrietty kennt die Regeln: geborgt wird nur, was benötigt wird und auch nur so wenig, dass die Bewohner des Hauses es nicht merken - und vor der Katze muss man sich in Acht nehmen. Am wichtigsten jedoch ist es, nicht von den Menschen gesehen zu werden, denn die dürfen nichts von Arrietty und ihresgleichen wissen. Sollten sie entdeckt werden, müssten sie ihr Heim samt Hab und Gut für immer verlassen. Arrietty weiß all dies, und doch, als der Menschenjunge Sho ins Haus einzieht, spürt sie, dass alles anders werden wird. Und so beginnt eine verbotene Freundschaft zwischen dem aufgeweckten, neugierigen Mädchen und dem kranken, geschwächten Jungen und ein unvergessliches Abenteuer, das das Leben beider für immer verändern wird...
Direct Download Links | DDL-Links

Ähnliche Releases der Kategorie