Atomic.Cyborg.1986.UNCUT.iNT.GERMAN.DVDRip.XViD-Trojan

21. April 2016 von
Atomic.Cyborg.1986.UNCUT.iNT.GERMAN.DVDRip.XViD-Trojan Warez-World
Aufrufe: 26 Hits
Vote 4 Us
Release:
Paco - Kampfmaschine des Todes DVD-RIP
Genre:
Action
Laufzeit:
89 Min.
Größe:
704 MB
Passwort:
Warez-World.org
Sprachen:
Video Codec:
MPEG-4 DivX / Xvid
Audio Stream:
Stereo
Bewertung:
Video Vorschau:
Online Stream:
Hinweise:
Uncut
Info:
Zeige NFOVerberge NFO
General
Format                                   : AVI
Format/Info                              : Audio Video Interleave
File size                                : 699 MiB
Duration                                 : 1h 29mn
Overall bit rate mode                    : Variable
Overall bit rate                         : 1 089 Kbps

Video
ID                                       : 0
Format                                   : MPEG-4 Visual
Format settings, BVOP                    : 2
Format settings, QPel                    : No
Format settings, GMC                     : No warppoints
Format settings, Matrix                  : Default (H.263)
Muxing mode                              : Packed bitstream
Codec ID                                 : XVID
Codec ID/Hint                            : XviD
Duration                                 : 1h 29mn
Bit rate                                 : 961 Kbps
Width                                    : 640 pixels
Height                                   : 368 pixels
Display aspect ratio                     : 1.739
Frame rate                               : 25.000 fps
Color space                              : YUV
Chroma subsampling                       : 4:2:0
Bit depth                                : 8 bits
Scan type                                : Progressive
Compression mode                         : Lossy
Bits/(Pixel*Frame)                       : 0.163
Stream size                              : 617 MiB (88%)
Writing library                          : XviD 1.2.1 (UTC 2008-12-04)

Audio
ID                                       : 1
Format                                   : MPEG Audio
Format version                           : Version 1
Format profile                           : Layer 3
Mode                                     : Joint stereo
Mode extension                           : MS Stereo
Codec ID                                 : 55
Codec ID/Hint                            : MP3
Duration                                 : 1h 29mn
Bit rate mode                            : Variable
Bit rate                                 : 115 Kbps
Nominal bit rate                         : 128 Kbps
Channel(s)                               : 2 channels
Sampling rate                            : 48.0 KHz
Compression mode                         : Lossy
Stream size                              : 73.7 MiB (11%)
Alignment                                : Aligned on interleaves
Interleave, duration                     : 24 ms (0.60 video frame)
Interleave, preload duration             : 160 ms
Writing library                          : LAME3.98r
Encoding settings                        : -m j -V 4 -q 2 -lowpass 17 --abr 128

Beschreibung:
Atomic.Cyborg.1986.UNCUT.iNT.GERMAN.DVDRip.XViD-Trojan
Paco Queruak, halb Mensch, halb Cyborg, soll im Auftrag eines mächtigen Konzerns einen einflussreichen Politiker töten. Doch der von ihm übrig gebliebende Teil menschlichen Gewissens lässt ihn den Auftrag nicht erfüllen und somit ist Pacos Leben keinen Pfifferling mehr wert. Der Konzern schickt seine besten Killer...
Direct Download Links | DDL-Links

Ähnliche Releases der Kategorie