Batman.v.Superman.Dawn.of.Justice.2016.EXTENDED.GERMAN.AC3D.1080p.Bluray.HEVC.x265-inD

8. Juli 2016 von
Batman.v.Superman.Dawn.of.Justice.2016.EXTENDED.GERMAN.AC3D.1080p.Bluray.HEVC.x265-inD Warez-World
Aufrufe: 92 Hits
Vote 4 Us
Release:
Batman v Superman Dawn of Justice BD
Genre:
Action
Laufzeit:
182 Min.
Größe:
2742 MB
Passwort:
Kein Passwort
Sprachen:
Video Codec:
MPEG-H H.265 / HEVC
Audio Stream:
Dolby Digital 5.1
Bewertung:
Video Vorschau:
Online Stream:
Hinweise:
Extended Cut
Info:
Zeige NFOVerberge NFO
General
Unique ID                                : 195222930441956681710790969593493758513 (0x92DE919A0DAED77D8335A9706B4CA231)
Format                                   : Matroska
Format version                           : Version 4 / Version 2
File size                                : 2.68 GiB
Duration                                 : 3 h 2 min
Overall bit rate                         : 2 100 kb/s
Encoded date                             : UTC 2016-07-06 14:52:17
Writing application                      : mkvmerge v9.2.0 ('Photograph') 64bit
Writing library                          : libebml v1.3.3 + libmatroska v1.4.4

Video
ID                                       : 1
Format                                   : AVC
Format/Info                              : Advanced Video Codec
Format profile                           : Main@L4
Format settings, CABAC                   : Yes
Format settings, ReFrames                : 4 frames
Codec ID                                 : V_MPEG4/ISO/AVC
Duration                                 : 3 h 2 min
Bit rate                                 : 1 925 kb/s
Width                                    : 1 920 pixels
Height                                   : 800 pixels
Display aspect ratio                     : 2.40:1
Frame rate mode                          : Constant
Frame rate                               : 23.976 (24000/1001) FPS
Color space                              : YUV
Chroma subsampling                       : 4:2:0
Bit depth                                : 8 bits
Scan type                                : Progressive
Bits/(Pixel*Frame)                       : 0.052
Stream size                              : 2.43 GiB (91%)
Writing library                          : x264 core 142 r2479 dd79a61
Encoding settings                        : cabac=1 / ref=1 / deblock=1:0:0 / analyse=0x1:0x111 / me=hex / subme=2 / psy=1 / psy_rd=1.00:0.00 / mixed_ref=0 / me_range=16 / chroma_me=1 / trellis=0 / 8x8dct=0 / cqm=0 / deadzone=21,11 / fast_pskip=1 / chroma_qp_offset=0 / threads=60 / lookahead_threads=6 / sliced_threads=0 / nr=0 / decimate=1 / interlaced=0 / bluray_compat=0 / constrained_intra=0 / bframes=3 / b_pyramid=2 / b_adapt=1 / b_bias=0 / direct=1 / weightb=1 / open_gop=0 / weightp=1 / keyint=240 / keyint_min=24 / scenecut=40 / intra_refresh=0 / rc_lookahead=10 / rc=abr / mbtree=1 / bitrate=1925 / ratetol=1.0 / qcomp=0.60 / qpmin=0 / qpmax=69 / qpstep=4 / vbv_maxrate=20000 / vbv_bufsize=25000 / nal_hrd=none / filler=0 / ip_ratio=1.40 / aq=1:1.00
Default                                  : Yes
Forced                                   : No
Color range                              : Limited
Color primaries                          : BT.709
Transfer characteristics                 : BT.709
Matrix coefficients                      : BT.709

Audio
ID                                       : 2
Format                                   : AC-3
Format/Info                              : Audio Coding 3
Mode extension                           : CM (complete main)
Format settings, Endianness              : Big
Codec ID                                 : A_AC3
Duration                                 : 3 h 2 min
Bit rate mode                            : Constant
Bit rate                                 : 192 kb/s
Channel(s)                               : 2 channels
Channel positions                        : Front: L R
Sampling rate                            : 48.0 kHz
Frame rate                               : 31.250 FPS (1536 spf)
Compression mode                         : Lossy
Delay relative to video                  : -83 ms
Stream size                              : 251 MiB (9%)
Default                                  : Yes
Forced                                   : No

Menu
00:00:00.000                             : :00:00:00.000
00:10:10.736                             : :00:10:10.652
00:27:00.871                             : :00:27:00.661
00:37:49.312                             : :00:37:49.225
00:46:54.733                             : :00:46:54.520
01:02:05.185                             : :01:02:04.971
01:14:10.828                             : :01:14:10.613
01:28:07.332                             : :01:28:07.115
01:41:46.735                             : :01:41:46.642
01:53:52.753                             : :01:53:52.617
02:02:58.299                             : :02:02:58.079
02:15:04.275                             : :02:15:04.054
02:27:55.172                             : :02:27:55.075
02:36:51.625                             : :02:36:51.444
02:48:27.613                             : :02:48:27.514
02:54:43.948                             : :02:54:43.765

Beschreibung:
Batman.v.Superman.Dawn.of.Justice.2016.EXTENDED.GERMAN.AC3D.1080p.Bluray.HEVC.x265-inD
Kurzbeschreibung Batman v Superman: Dawn of Justice Regisseur Zack Snyder präsentiert Batman v Superman: Dawn of Justice mit Ben Affleck als Batman/Bruce Wayne und Henry Cavill als Superman/Clark Kent in den Hauptrollen. Erstmals sind damit die berühmten Figuren gemeinsam auf der Leinwand zu sehen. Jener überragende Streiter für Recht und Ordnung in Gotham City fürchtet, dass selbst die Aktionen eines gottähnlichen Superhelden außer Kontrolle geraten könnten, wenn er nicht ständig beaufsichtigt wird. Deshalb legt er sich jetzt mit dem meistverehrten modernen Retter in Metropolis an, während die Welt darüber streitet, welche Art Helden sie eigentlich braucht. Und da Batman und Superman nun einander bekämpfen, taucht unversehens eine neue Bedrohung auf, durch die die Menschheit in brisante Gefahren von ungeahnten Ausmaßen gerät.
Direct Download Links | DDL-Links

Ähnliche Releases der Kategorie