Batman.v.Superman.Dawn.of.Justice.2016.German.AC3LD.WEBRiP.XViD-UTRG

1. Juli 2016 von
Batman.v.Superman.Dawn.of.Justice.2016.German.AC3LD.WEBRiP.XViD-UTRG Warez-World
Aufrufe: 54 Hits
Vote 4 Us
Release:
Batman v Superman: Dawn of Justice WEB-RIP
Genre:
Action
Laufzeit:
146 Min.
Größe:
1885 MB
Passwort:
Warez-World.org
Sprachen:
Video Codec:
MPEG-4 DivX / Xvid
Audio Stream:
Line
Bewertung:
Video Vorschau:
Online Stream:
Info:
Zeige NFOVerberge NFO
General
Format                                   : AVI
Format/Info                              : Audio Video Interleave
File size                                : 1.82 GiB
Duration                                 : 2h 31mn
Overall bit rate                         : 1 720 Kbps

Video
ID                                       : 0
Format                                   : MPEG-4 Visual
Format settings, BVOP                    : 2
Format settings, QPel                    : No
Format settings, GMC                     : No warppoints
Format settings, Matrix                  : Default (H.263)
Codec ID                                 : XVID
Codec ID/Hint                            : XviD
Duration                                 : 2h 31mn
Bit rate                                 : 1 520 Kbps
Width                                    : 720 pixels
Height                                   : 304 pixels
Display aspect ratio                     : 2.35:1
Frame rate                               : 23.976 fps
Color space                              : YUV
Chroma subsampling                       : 4:2:0
Bit depth                                : 8 bits
Scan type                                : Progressive
Compression mode                         : Lossy
Bits/(Pixel*Frame)                       : 0.290
Stream size                              : 1.61 GiB (88%)
Writing library                          : XviD 1.2.1 (UTC 2008-12-04)

Audio
ID                                       : 1
Format                                   : AC-3
Format/Info                              : Audio Coding 3
Mode extension                           : CM (complete main)
Format settings, Endianness              : Big
Codec ID                                 : 2000
Duration                                 : 2h 31mn
Bit rate mode                            : Constant
Bit rate                                 : 192 Kbps
Channel(s)                               : 2 channels
Channel positions                        : Front: L R
Sampling rate                            : 48.0 KHz
Compression mode                         : Lossy
Stream size                              : 208 MiB (11%)
Alignment                                : Aligned on interleaves
Interleave, duration                     : 64 ms (1.53 video frames)
Interleave, preload duration             : 192 ms
Title                                    : ps-bvs.webld.72 - [0] German

Beschreibung:
Batman.v.Superman.Dawn.of.Justice.2016.German.AC3LD.WEBRiP.XViD-UTRG
Batman alias Bruce Wayne, jener überragende Streiter für Recht und Ordnung in Gotham City, fürchtet, dass selbst die Aktionen eines gottähnlichen Superhelden wie Superman außer Kontrolle geraten könnten, wenn er nicht ständig beaufsichtigt wird. Deshalb legt er sich jetzt mit dem meistverehrten modernen Retter in Metropolis an, während die Welt darüber streitet, welche Art Helden sie eigentlich braucht. Und da Batman und Superman nun einander bekämpfen, taucht unversehens eine neue Bedrohung auf, durch die die Menschheit in brisante Gefahren von ungeahnten Ausmaßen gerät.
Direct Download Links | DDL-Links

Ähnliche Releases der Kategorie