Batman.v.Superman.Dawn.of.Justice.EXTENDED.2016.German.DL.1080p.BluRay.AVC.REMUX-LeetHD

31. Juli 2016 von
Batman.v.Superman.Dawn.of.Justice.EXTENDED.2016.German.DL.1080p.BluRay.AVC.REMUX-LeetHD Warez-World
Aufrufe: 54 Hits
Vote 4 Us
Release:
Batman v Superman Dawn of Justice EXTENDED BD
Genre:
Action
Größe:
39288 MB
Passwort:
Warez-World.org
Sprachen:
Video Codec:
MPEG-4 H.264 / AVC
Audio Stream:
Dolby Digital 7.1
Bewertung:
Video Vorschau:
Online Stream:
Info:
Zeige NFOVerberge NFO
General
Unique ID                                : 173033628687357697614313293572706761659 (0x822D108F5C19AEACB9342509E8117BBB)
Complete name                            : F:MoviesBatman v Superman Dawn of Justice EXTENDED 2016 German DL 1080p BluRay AVC REMUX-LeetHDBatman.v.Superman.Dawn.of.Justice.EXTENDED.2016.German.DL.1080p.BluRay.AVC.REMUX-LeetHDlhd-bvs-rmx.mkv
Format                                   : Matroska
Format version                           : Version 4 / Version 2
File size                                : 38.4 GiB
Duration                                 : 3h 2mn
Overall bit rate mode                    : Variable
Overall bit rate                         : 30.1 Mbps
Encoded date                             : UTC 2016-07-28 20:36:44
Writing application                      : mkvmerge v9.0.1 ('Obstacles') 64bit
Writing library                          : libebml v1.3.3 + libmatroska v1.4.4
DURATION                                 : 03:02:13.005000000
NUMBER_OF_FRAMES                         : 3830
NUMBER_OF_BYTES                          : 12059086
_STATISTICS_WRITING_APP                  : mkvmerge v9.0.1 ('Obstacles') 64bit
_STATISTICS_WRITING_DATE_UTC             : 2016-07-28 20:36:44
_STATISTICS_TAGS                         : BPS DURATION NUMBER_OF_FRAMES NUMBER_OF_BYTES

Video
ID                                       : 1
Format                                   : AVC
Format/Info                              : Advanced Video Codec
Format profile                           : High@L4.1
Format settings, CABAC                   : Yes
Format settings, ReFrames                : 2 frames
Codec ID                                 : V_MPEG4/ISO/AVC
Duration                                 : 3h 2mn
Bit rate mode                            : Variable
Width                                    : 1 920 pixels
Height                                   : 1 080 pixels
Display aspect ratio                     : 16:9
Frame rate mode                          : Constant
Frame rate                               : 23.976 fps
Color space                              : YUV
Chroma subsampling                       : 4:2:0
Bit depth                                : 8 bits
Scan type                                : Progressive
Default                                  : No
Forced                                   : No
DURATION                                 : 03:02:33.651000000
NUMBER_OF_FRAMES                         : 262625
NUMBER_OF_BYTES                          : 32804904804
_STATISTICS_WRITING_APP                  : mkvmerge v9.0.1 ('Obstacles') 64bit
_STATISTICS_WRITING_DATE_UTC             : 2016-07-28 20:36:44
_STATISTICS_TAGS                         : BPS DURATION NUMBER_OF_FRAMES NUMBER_OF_BYTES

Audio #1
ID                                       : 2
Format                                   : TrueHD
Codec ID                                 : A_TRUEHD
Duration                                 : 3h 2mn
Bit rate mode                            : Variable
Maximum bit rate                         : 8 046 Kbps
Channel(s)                               : 8 channels
Channel positions                        : Front: L C R, Side: L R, Back: L R, LFE
Sampling rate                            : 48.0 KHz
Compression mode                         : Lossless
Language                                 : German
Default                                  : No
Forced                                   : No

Audio #2
ID                                       : 3
Format                                   : AC-3
Format/Info                              : Audio Coding 3
Mode extension                           : CM (complete main)
Format settings, Endianness              : Big
Codec ID                                 : A_AC3
Duration                                 : 3h 2mn
Bit rate mode                            : Constant
Bit rate                                 : 448 Kbps
Channel(s)                               : 6 channels
Channel positions                        : Front: L C R, Side: L R, LFE
Sampling rate                            : 48.0 KHz
Bit depth                                : 16 bits
Compression mode                         : Lossy
Stream size                              : 585 MiB (1%)
Language                                 : German
Default                                  : Yes
Forced                                   : No

Audio #3
ID                                       : 4
Format                                   : AC-3
Format/Info                              : Audio Coding 3
Mode extension                           : CM (complete main)
Format settings, Endianness              : Big
Codec ID                                 : A_AC3
Duration                                 : 3h 2mn
Bit rate mode                            : Constant
Bit rate                                 : 640 Kbps
Channel(s)                               : 6 channels
Channel positions                        : Front: L C R, Side: L R, LFE
Sampling rate                            : 48.0 KHz
Bit depth                                : 16 bits
Compression mode                         : Lossy
Stream size                              : 836 MiB (2%)
Language                                 : English
Default                                  : No
Forced                                   : No

Text #1
ID                                       : 5
Format                                   : PGS
Muxing mode                              : zlib
Codec ID                                 : S_HDMV/PGS
Codec ID/Info                            : Picture based subtitle format used on BDs/HD-DVDs
Title                                    : forced
Language                                 : German
Default                                  : Yes
Forced                                   : Yes

Text #2
ID                                       : 6
Format                                   : PGS
Muxing mode                              : zlib
Codec ID                                 : S_HDMV/PGS
Codec ID/Info                            : Picture based subtitle format used on BDs/HD-DVDs
Title                                    : complete
Language                                 : German
Default                                  : No
Forced                                   : No

Text #3
ID                                       : 7
Format                                   : PGS
Muxing mode                              : zlib
Codec ID                                 : S_HDMV/PGS
Codec ID/Info                            : Picture based subtitle format used on BDs/HD-DVDs
Title                                    : complete
Language                                 : English
Default                                  : No
Forced                                   : No
Beschreibung:
Batman.v.Superman.Dawn.of.Justice.EXTENDED.2016.German.DL.1080p.BluRay.AVC.REMUX-LeetHD
Regisseur Zack Snyder präsentiert Batman v Superman: Dawn of Justice mit Ben Affleck als Batman/Bruce Wayne und Henry Cavill als Superman/Clark Kent in den Hauptrollen. Erstmals sind damit die berühmten Figuren gemeinsam auf der Leinwand zu sehen. Jener überragende Streiter für Recht und Ordnung in Gotham City fürchtet, dass selbst die Aktionen eines gottähnlichen Superhelden außer Kontrolle geraten könnten, wenn er nicht ständig beaufsichtigt wird. Deshalb legt er sich jetzt mit dem meistverehrten modernen Retter in Metropolis an, während die Welt darüber streitet, welche Art Helden sie eigentlich braucht. Und da Batman und Superman nun einander bekämpfen, taucht unversehens eine neue Bedrohung auf, durch die die Menschheit in brisante Gefahren von ungeahnten Ausmaßen gerät.
Direct Download Links | DDL-Links

Ähnliche Releases der Kategorie