Batman.v.Superman.Dawn.of.Justice.EXTENDED.2016.German.DL.720p.BluRay.x264-LeetHD

31. Juli 2016 von
Batman.v.Superman.Dawn.of.Justice.EXTENDED.2016.German.DL.720p.BluRay.x264-LeetHD Warez-World
Aufrufe: 45 Hits
Vote 4 Us
Release:
Batman v Superman Dawn of Justice EXTENDED BD
Genre:
Action
Größe:
6535 MB
Passwort:
Warez-World.org
Sprachen:
Video Codec:
MPEG-4 H.264 / AVC
Audio Stream:
DTS 5.1
Bewertung:
Video Vorschau:
Online Stream:
Info:
Zeige NFOVerberge NFO
General
Unique ID                                : 221603300988797227710229136279318109004 (0xA6B73E49E3464116968155B0AA211B4C)
Complete name                            : F:MoviesBatman v Superman Dawn of Just man DL 720p BluRay x264-LeetHDlhd-bvss-720p.mkv
Format                                   : Matroska
Format version                           : Version 2
File size                                : 6.39 GiB
Duration                                 : 3h 2mn
Overall bit rate                         : 5 008 Kbps
Encoded date                             : UTC 2016-07-29 14:08:14
Writing application                      : mkvmerge v4.5.0 ('Speed of Light') gebaut am Feb  1 2011 02:10:32
Writing library                          : libebml v1.2.0 + libmatroska v1.1.0

Video
ID                                       : 1
Format                                   : AVC
Format/Info                              : Advanced Video Codec
Format profile                           : High@L4.1
Format settings, CABAC                   : Yes
Format settings, ReFrames                : 4 frames
Codec ID                                 : V_MPEG4/ISO/AVC
Duration                                 : 3h 2mn
Bit rate                                 : 3 911 Kbps
Width                                    : 1 280 pixels
Height                                   : 536 pixels
Display aspect ratio                     : 2.40:1
Frame rate mode                          : Constant
Frame rate                               : 23.976 fps
Color space                              : YUV
Chroma subsampling                       : 4:2:0
Bit depth                                : 8 bits
Scan type                                : Progressive
Bits/(Pixel*Frame)                       : 0.238
Stream size                              : 4.87 GiB (76%)
Writing library                          : x264 core 148 r2638 7599210
Encoding settings                        : cabac=1 / ref=5 / deblock=1:-1:-1 / analyse=0x3:0x133 / me=umh / subme=7 / psy=1 / psy_rd=1.00:0.15 / mixed_ref=1 / me_range=16 / chroma_me=1 / trellis=2 / 8x8dct=1 / cqm=0 / deadzone=21,11 / fast_pskip=1 / chroma_qp_offset=-3 / threads=12 / lookahead_threads=2 / sliced_threads=0 / nr=0 / decimate=1 / interlaced=0 / bluray_compat=0 / constrained_intra=0 / bframes=3 / b_pyramid=1 / b_adapt=2 / b_bias=0 / direct=1 / weightb=1 / open_gop=0 / weightp=1 / keyint=240 / keyint_min=23 / scenecut=40 / intra_refresh=0 / rc_lookahead=30 / rc=2pass / mbtree=1 / bitrate=3911 / ratetol=1.0 / qcomp=0.60 / qpmin=0 / qpmax=69 / qpstep=4 / cplxblur=20.0 / qblur=0.5 / ip_ratio=1.40 / aq=1:1.00
Language                                 : English
Default                                  : Yes
Forced                                   : No

Audio #1
ID                                       : 2
Format                                   : AC-3
Format/Info                              : Audio Coding 3
Mode extension                           : CM (complete main)
Format settings, Endianness              : Big
Codec ID                                 : A_AC3
Duration                                 : 3h 2mn
Bit rate mode                            : Constant
Bit rate                                 : 448 Kbps
Channel(s)                               : 6 channels
Channel positions                        : Front: L C R, Side: L R, LFE
Sampling rate                            : 48.0 KHz
Bit depth                                : 16 bits
Compression mode                         : Lossy
Stream size                              : 585 MiB (9%)
Title                                    : German
Language                                 : German
Default                                  : Yes
Forced                                   : No

Audio #2
ID                                       : 3
Format                                   : AC-3
Format/Info                              : Audio Coding 3
Mode extension                           : CM (complete main)
Format settings, Endianness              : Big
Codec ID                                 : A_AC3
Duration                                 : 3h 2mn
Bit rate mode                            : Constant
Bit rate                                 : 640 Kbps
Channel(s)                               : 6 channels
Channel positions                        : Front: L C R, Side: L R, LFE
Sampling rate                            : 48.0 KHz
Bit depth                                : 16 bits
Compression mode                         : Lossy
Stream size                              : 836 MiB (13%)
Title                                    : English
Language                                 : English
Default                                  : No
Forced                                   : No

Text #1
ID                                       : 4
Format                                   : VobSub
Muxing mode                              : zlib
Codec ID                                 : S_VOBSUB
Codec ID/Info                            : Picture based subtitle format used on DVDs
Title                                    : German forced
Language                                 : German
Default                                  : Yes
Forced                                   : Yes

Text #2
ID                                       : 5
Format                                   : VobSub
Muxing mode                              : zlib
Codec ID                                 : S_VOBSUB
Codec ID/Info                            : Picture based subtitle format used on DVDs
Title                                    : German complete
Language                                 : German
Default                                  : No
Forced                                   : No

Text #3
ID                                       : 6
Format                                   : VobSub
Muxing mode                              : zlib
Codec ID                                 : S_VOBSUB
Codec ID/Info                            : Picture based subtitle format used on DVDs
Title                                    : English complete
Language                                 : English
Default                                  : No
Forced                                   : No

Menu
00:00:00.000                             : en:00:00:00.000
00:10:10.652                             : en:00:10:10.652
00:27:00.661                             : en:00:27:00.661
00:37:49.225                             : en:00:37:49.225
00:46:54.520                             : en:00:46:54.520
01:02:04.971                             : en:01:02:04.971
01:14:10.613                             : en:01:14:10.613
01:28:07.115                             : en:01:28:07.115
01:41:46.642                             : en:01:41:46.642
01:53:52.617                             : en:01:53:52.617
02:02:58.079                             : en:02:02:58.079
02:15:04.054                             : en:02:15:04.054
02:27:55.075                             : en:02:27:55.075
02:36:51.444                             : en:02:36:51.444
02:48:27.514                             : en:02:48:27.514
02:54:43.765                             : en:02:54:43.765
Beschreibung:
Batman.v.Superman.Dawn.of.Justice.EXTENDED.2016.German.DL.720p.BluRay.x264-LeetHD
Regisseur Zack Snyder präsentiert Batman v Superman: Dawn of Justice mit Ben Affleck als Batman/Bruce Wayne und Henry Cavill als Superman/Clark Kent in den Hauptrollen. Erstmals sind damit die berühmten Figuren gemeinsam auf der Leinwand zu sehen. Jener überragende Streiter für Recht und Ordnung in Gotham City fürchtet, dass selbst die Aktionen eines gottähnlichen Superhelden außer Kontrolle geraten könnten, wenn er nicht ständig beaufsichtigt wird. Deshalb legt er sich jetzt mit dem meistverehrten modernen Retter in Metropolis an, während die Welt darüber streitet, welche Art Helden sie eigentlich braucht. Und da Batman und Superman nun einander bekämpfen, taucht unversehens eine neue Bedrohung auf, durch die die Menschheit in brisante Gefahren von ungeahnten Ausmaßen gerät.
Direct Download Links | DDL-Links

Ähnliche Releases der Kategorie