BFG.The.Big.Friendly.Giant.TS.AC3LD.German.XViD-PS

28. Juli 2016 von
BFG.The.Big.Friendly.Giant.TS.AC3LD.German.XViD-PS Warez-World
Aufrufe: 452 Hits
Vote 4 Us
Release:
BFG - Big Friendly Giant TS
Genre:
Adventure
Laufzeit:
117 Min.
Größe:
1620 MB
Passwort:
Warez-World.org
Sprachen:
Video Codec:
MPEG-4 DivX / Xvid
Audio Stream:
Line
Bewertung:
Video Vorschau:
Online Stream:
Info:
Zeige NFOVerberge NFO
General
Format                                   : AVI
Format/Info                              : Audio Video Interleave
File size                                : 1.57 GiB
Duration                                 : 1h 52mn
Overall bit rate                         : 1 998 Kbps
Writing application                      : VirtualDubMod 1.4.13
Writing library                          : VirtualDub build 14328/release

Video
ID                                       : 0
Format                                   : MPEG-4 Visual
Format settings, BVOP                    : 2
Format settings, QPel                    : No
Format settings, GMC                     : No warppoints
Format settings, Matrix                  : Default (H.263)
Codec ID                                 : XVID
Codec ID/Hint                            : XviD
Duration                                 : 1h 52mn
Bit rate                                 : 1 794 Kbps
Width                                    : 720 pixels
Height                                   : 328 pixels
Display aspect ratio                     : 2.2:1
Frame rate                               : 29.940 fps
Color space                              : YUV
Chroma subsampling                       : 4:2:0
Bit depth                                : 8 bits
Scan type                                : Progressive
Compression mode                         : Lossy
Bits/(Pixel*Frame)                       : 0.254
Stream size                              : 1.41 GiB (90%)
Writing library                          : XviD 64

Audio
ID                                       : 1
Format                                   : AC-3
Format/Info                              : Audio Coding 3
Mode extension                           : CM (complete main)
Format settings, Endianness              : Big
Codec ID                                 : 2000
Duration                                 : 1h 52mn
Bit rate mode                            : Constant
Bit rate                                 : 192 Kbps
Channel(s)                               : 2 channels
Channel positions                        : Front: L R
Sampling rate                            : 48.0 KHz
Compression mode                         : Lossy
Stream size                              : 154 MiB (10%)
Alignment                                : Split accross interleaves
Interleave, duration                     : 33 ms (1.00 video frame)
Interleave, preload duration             : 500 ms

Beschreibung:
BFG.The.Big.Friendly.Giant.TS.AC3LD.German.XViD-PS
Die Geisterstunde beginnt nicht um 0 Uhr nachts, so wie alle denken, sie beginnt um 3 Uhr morgens! Waisenkind Sophie (Ruby Barnhill) weiß das, denn sie kann in ihrem Kinderheim nicht schlafen und geht deswegen nachts auf Streifzug. Dabei beobachtet sie eines Morgens, wie eine über sieben Meter große Gestalt eine umgefallene Mülltonne wieder aufstellt – und wird von dem fremden, gigantisch großen Mann alsbald ins Reich der Riesen verschleppt. Zum Glück für Sophie ist sie in Obhut des Big Friendly Giant geraten, der ihr nichts Böses will, sondern sie stattdessen lieber auf Traumjagd mitnimmt. Doch es gibt noch andere Riesen, die sind größer als der BFG und die fressen Menschen. Sophie und ihr neuer Freund schmieden also einen Plan – der hat mit dem Buckingham Palace und der Königin von England (Penelope Wilton) zu tun…
Direct Download Links | DDL-Links

Ähnliche Releases der Kategorie