Bunker.of.the.Dead.2015.German.DL.720p.BluRay.x264-LeetHD

24. Mai 2016 von
Bunker.of.the.Dead.2015.German.DL.720p.BluRay.x264-LeetHD Warez-World
Aufrufe: 47 Hits
Vote 4 Us
Release:
Bunker of the Dead BD
Genre:
Thriller
Laufzeit:
77 Min.
Größe:
3926 MB
Passwort:
Warez-World.org
Sprachen:
Video Codec:
MPEG-4 H.264 / AVC
Audio Stream:
DTS 5.1
Bewertung:
Video Vorschau:
Online Stream:
Info:
Zeige NFOVerberge NFO
General
Unique ID                                : 220192593563856499268262905747076929082 (0xA5A78D0AE86EAD9DB0E659894E7DD63A)
Complete name                            : lhd-buotde-720p.mkv
Format                                   : Matroska
Format version                           : Version 2
File size                                : 3.83 GiB
Duration                                 : 1h 16mn
Overall bit rate                         : 7 169 Kbps
Encoded date                             : UTC 2016-05-22 14:04:39
Writing application                      : mkvmerge v4.5.0 ('Speed of Light') gebaut am Feb  1 2011 02:10:32
Writing library                          : libebml v1.2.0 + libmatroska v1.1.0

Video
ID                                       : 1
Format                                   : AVC
Format/Info                              : Advanced Video Codec
Format profile                           : High@L4.1
Format settings, CABAC                   : Yes
Format settings, ReFrames                : 3 frames
Codec ID                                 : V_MPEG4/ISO/AVC
Duration                                 : 1h 16mn
Bit rate                                 : 4 008 Kbps
Width                                    : 1 280 pixels
Height                                   : 482 pixels
Display aspect ratio                     : 2.656
Frame rate mode                          : Constant
Frame rate                               : 23.976 (24000/1001) fps
Color space                              : YUV
Chroma subsampling                       : 4:2:0
Bit depth                                : 8 bits
Scan type                                : Progressive
Bits/(Pixel*Frame)                       : 0.271
Stream size                              : 2.14 GiB (56%)
Writing library                          : x264 core 148 r2638 7599210
Encoding settings                        : cabac=1 / ref=2 / deblock=1:-1:-1 / analyse=0x3:0x133 / me=umh / subme=7 / psy=1 / psy_rd=1.00:0.15 / mixed_ref=1 / me_range=16 / chroma_me=1 / trellis=2 / 8x8dct=1 / cqm=0 / deadzone=21,11 / fast_pskip=1 / chroma_qp_offset=-3 / threads=12 / lookahead_threads=2 / sliced_threads=0 / nr=0 / decimate=1 / interlaced=0 / bluray_compat=0 / constrained_intra=0 / bframes=3 / b_pyramid=1 / b_adapt=2 / b_bias=0 / direct=1 / weightb=1 / open_gop=0 / weightp=1 / keyint=240 / keyint_min=23 / scenecut=40 / intra_refresh=0 / rc_lookahead=30 / rc=crf / mbtree=1 / crf=18.0 / qcomp=0.60 / qpmin=0 / qpmax=69 / qpstep=4 / ip_ratio=1.40 / aq=1:1.00
Language                                 : English
Default                                  : Yes
Forced                                   : No

Audio #1
ID                                       : 2
Format                                   : DTS
Format/Info                              : Digital Theater Systems
Mode                                     : 16
Format settings, Endianness              : Big
Codec ID                                 : A_DTS
Duration                                 : 1h 16mn
Bit rate mode                            : Constant
Bit rate                                 : 1 509 Kbps
Channel(s)                               : 6 channels
Channel positions                        : Front: L C R, Side: L R, LFE
Sampling rate                            : 48.0 KHz
Frame rate                               : 93.750 fps (512 spf)
Bit depth                                : 24 bits
Compression mode                         : Lossy
Delay relative to video                  : 11ms
Stream size                              : 827 MiB (21%)
Title                                    : German
Language                                 : German
Default                                  : Yes
Forced                                   : No

Audio #2
ID                                       : 3
Format                                   : DTS
Format/Info                              : Digital Theater Systems
Mode                                     : 16
Format settings, Endianness              : Big
Codec ID                                 : A_DTS
Duration                                 : 1h 16mn
Bit rate mode                            : Constant
Bit rate                                 : 1 509 Kbps
Channel(s)                               : 6 channels
Channel positions                        : Front: L C R, Side: L R, LFE
Sampling rate                            : 48.0 KHz
Frame rate                               : 93.750 fps (512 spf)
Bit depth                                : 24 bits
Compression mode                         : Lossy
Delay relative to video                  : 11ms
Stream size                              : 827 MiB (21%)
Title                                    : English
Language                                 : English
Default                                  : No
Forced                                   : No

Text #1
ID                                       : 4
Format                                   : VobSub
Muxing mode                              : zlib
Codec ID                                 : S_VOBSUB
Codec ID/Info                            : Picture based subtitle format used on DVDs
Title                                    : German forced
Language                                 : German
Default                                  : Yes
Forced                                   : Yes

Text #2
ID                                       : 5
Format                                   : VobSub
Muxing mode                              : zlib
Codec ID                                 : S_VOBSUB
Codec ID/Info                            : Picture based subtitle format used on DVDs
Title                                    : German complete
Language                                 : German
Default                                  : No
Forced                                   : No
Beschreibung:
Bunker.of.the.Dead.2015.German.DL.720p.BluRay.x264-LeetHD
In Oberammergau finden die Freunde Markus und Thomas unter Verwendung eines alten Tagebuchs den Zugang zu einer unterirdischen Militärbasis aus dem II. Weltkrieg. Die mit dem Codenamen CERUSIT geführte U-Verlagerung diente den Nazis als geheime Forschungsanstalt und bis heute ranken sich auch Gerüchte um das seit Kriegsende verschollene Beutegold des Dritten Reichs. Der Eingang zu dem Höhlensystem liegt jedoch mitten im Sperrgebiet einer heutigen US-Militärbasis und so ergeben sich schon hier erste Schwierigkeiten. Ausgerüstet mit Funk und 3D-Kamera dringt Markus in das Sperrgebiet ein und macht sich erfolgreich auf die Suche nach dem Eingang der unterirdischen Anlage. Es gelingt ihm, in das Höhlensystem vorzustoßen und nach einigen Irrungen findet er tatsächlich die geheime Basis. Was Markus nicht weiß, ist, dass sich mit seinem Eindringen nicht nur das US-Militär an seine Fersen geheftet hat, sondern auch etwas, daß seit über 70 Jahren auf vieles verzichten musste - allem voran auf Nahrung. Für Markus beginnt ein Rennen um Leben und Tot.
Direct Download Links | DDL-Links

Ähnliche Releases der Kategorie