Burnt.Im.Rausch.der.Sterne.2015.German.AC3.BDRiP.XviD-FIJ

21. April 2016 von
Burnt.Im.Rausch.der.Sterne.2015.German.AC3.BDRiP.XviD-FIJ Warez-World
Aufrufe: 33 Hits
Vote 4 Us
Release:
Im Rausch der Sterne BD-RIP
Genre:
Drama
Größe:
1404 MB
Passwort:
Warez-World.org
Sprachen:
Video Codec:
MPEG-4 DivX / Xvid
Audio Stream:
Dolby Digital 5.1
Bewertung:
Video Vorschau:
Online Stream:
Info:
Zeige NFOVerberge NFO
General
Format                                   : AVI
Format/Info                              : Audio Video Interleave
File size                                : 1.37 GiB
Duration                                 : 1h 40mn
Overall bit rate                         : 1 954 Kbps
Writing application                      : VirtualDubModRus 1.5.10.2 (build 2540/release)
Writing library                          : VirtualDubMod build 2540/release

Video
ID                                       : 0
Format                                   : MPEG-4 Visual
Format settings, BVOP                    : No
Format settings, QPel                    : No
Format settings, GMC                     : No warppoints
Format settings, Matrix                  : Default (H.263)
Codec ID                                 : XVID
Codec ID/Hint                            : XviD
Duration                                 : 1h 40mn
Bit rate                                 : 1 497 Kbps
Width                                    : 720 pixels
Height                                   : 304 pixels
Display aspect ratio                     : 2.35:1
Frame rate                               : 24.000 fps
Color space                              : YUV
Chroma subsampling                       : 4:2:0
Bit depth                                : 8 bits
Scan type                                : Progressive
Compression mode                         : Lossy
Bits/(Pixel*Frame)                       : 0.285
Stream size                              : 1.05 GiB (77%)
Writing library                          : XviD 64

Audio
ID                                       : 1
Format                                   : AC-3
Format/Info                              : Audio Coding 3
Mode extension                           : CM (complete main)
Format settings, Endianness              : Big
Codec ID                                 : 2000
Duration                                 : 1h 40mn
Bit rate mode                            : Constant
Bit rate                                 : 448 Kbps
Channel(s)                               : 6 channels
Channel positions                        : Front: L C R, Side: L R, LFE
Sampling rate                            : 48.0 KHz
Compression mode                         : Lossy
Stream size                              : 322 MiB (23%)
Alignment                                : Split accross interleaves
Interleave, duration                     : 42 ms (1.00 video frame)
Interleave, preload duration             : 500 ms

Beschreibung:
Burnt.Im.Rausch.der.Sterne.2015.German.AC3.BDRiP.XviD-FIJ
Adam Jones ist wie ein Rockstar: Genial, erfolgreich, leidenschaftlich und mit einem äußerst exzessiven Lebensstil. Dieser kostet ihn den Job als Chefkoch in einem der exklusivsten Sternerestaurants in Paris. Ein tiefer Fall, aber nach zwei Jahren, zwei Monaten und sechs Wochen ist Adam Jones clean und zurück in seiner Heimatstadt London. Er will die Besten der Besten im Team für ein neues bahnbrechendes Restaurant, er will 3 Sterne - und er will Helene, die außergewöhnlich begnadet kocht und zudem noch sehr attraktiv ist. Einziges Problem: Helene kann Adam nicht ausstehen, der wie ein Besessener seine Mitarbeiter für ein perfektes Menü in den Wahnsinn treibt und regelmäßig die Beherrschung verliert. Aber beide besitzen die gleiche Leidenschaft, brauchen die Hitze, den Druck und die Energie der Küche wie die Luft zum Atmen - doch Adam muss begreifen, dass sie nur im Team die Gourmetwelt Londons wirklich rocken können!
Direct Download Links | DDL-Links

Ähnliche Releases der Kategorie