Carol.2015.German.AC3.5.1.BDRip.XviD-iNTERFilm

21. April 2016 von
Carol.2015.German.AC3.5.1.BDRip.XviD-iNTERFilm Warez-World
Aufrufe: 25 Hits
Vote 4 Us
Release:
Carol BD-RIP
Genre:
Drama
Laufzeit:
114 Min.
Größe:
1638 MB
Passwort:
Warez-World.org
Sprachen:
Video Codec:
MPEG-4 DivX / Xvid
Audio Stream:
Stereo
Bewertung:
Video Vorschau:
Online Stream:
Info:
Zeige NFOVerberge NFO
General
Format                                   : AVI
Format/Info                              : Audio Video Interleave
Format profile                           : OpenDML
Format settings                          : rec
File size                                : 1.60 GiB
Duration                                 : 1h 58mn
Overall bit rate                         : 1 931 Kbps
Writing application                      : AVI-Mux GUI 1.17.8.3, Feb 16 201019:42:50

Video
ID                                       : 0
Format                                   : xvid
Codec ID                                 : xvid
Duration                                 : 1h 58mn
Bit rate                                 : 1 491 Kbps
Width                                    : 720 pixels
Height                                   : 384 pixels
Display aspect ratio                     : 1.85:1
Frame rate                               : 24.000 fps
Bits/(Pixel*Frame)                       : 0.225
Stream size                              : 1.24 GiB (77%)

Audio #1
ID                                       : 1
Format                                   : AC-3
Format/Info                              : Audio Coding 3
Mode extension                           : CM (complete main)
Format settings, Endianness              : Big
Codec ID                                 : 2000
Duration                                 : 1h 34mn
Bit rate mode                            : Constant
Bit rate                                 : 384 Kbps
Channel(s)                               : 6 channels
Channel positions                        : Front: L C R, Side: L R, LFE
Sampling rate                            : 48.0 KHz
Compression mode                         : Lossy
Stream size                              : 260 MiB (16%)
Alignment                                : Aligned on interleaves
Interleave, duration                     : 80 ms (1.93 video frames)
Interleave, preload duration             : 192 ms
Title                                    : kw-patg.sd

Audio #2
ID                                       : 2
Format                                   : MPEG Audio
Format version                           : Version 1
Format profile                           : Layer 3
Mode                                     : Joint stereo
Codec ID                                 : 55
Codec ID/Hint                            : MP3
Duration                                 : 1h 58mn
Bit rate mode                            : Constant
Bit rate                                 : 128 Kbps
Channel(s)                               : 2 channels
Sampling rate                            : 44.1 KHz
Compression mode                         : Lossy
Stream size                              : 109 MiB (7%)
Alignment                                : Aligned on interleaves
Interleave, duration                     : 441 ms (10.59 video frames)
Interleave, preload duration             : 208 ms

Beschreibung:
Carol.2015.German.AC3.5.1.BDRip.XviD-iNTERFilm
Im New York der 1950er-Jahre führt Carol eine unerfüllte Ehe mit ihrem wohlhabenden Mann Harge. Sie lernt die junge Therese kennen, die in einem Kaufhaus arbeitet und von einem besseren Leben träumt. Auf einer gemeinsamen Reise entwickelt sich eine ganz besondere Bindung zwischen ihnen - und schließlich die große Liebe. Harge will das neue Glück seiner Frau jedoch nicht akzeptieren. Er beauftragt einen Privatdetektiv damit, dem frisch verliebten Paar zu folgen und entscheidende Beweise für das laufende Scheidungsverfahren zu sammeln. Carol muss schon bald um das Sorgerecht ihrer geliebten Tochter kämpfen. Ihr Mann versucht es ihr mit allen Mitteln zu nehmen.
Direct Download Links | DDL-Links

Ähnliche Releases der Kategorie