Confirmation.German.2016.AC3.WEBRiP.XVID-OMS

28. Juli 2016 von
Confirmation.German.2016.AC3.WEBRiP.XVID-OMS Warez-World
Aufrufe: 38 Hits
Vote 4 Us
Release:
Confirmation WEB-RIP
Genre:
Thriller
Laufzeit:
110 Min.
Größe:
1474 MB
Passwort:
Warez-World.org
Sprachen:
Video Codec:
MPEG-4 DivX / Xvid
Audio Stream:
Dolby Digital 5.1
Bewertung:
Video Vorschau:
Online Stream:
Info:
Zeige NFOVerberge NFO
General
Format                                   : AVI
Format/Info                              : Audio Video Interleave
Format profile                           : OpenDML
File size                                : 1.44 GiB
Duration                                 : 1h 49mn
Overall bit rate                         : 1 875 Kbps
Movie name                               : Confirmation.German.2016.AC3.WEBRiP.XVID-OMS
Genre                                    : Drama
Recorded date                            : 2016
Writing application                      : Lavf57.2.100

Video
ID                                       : 0
Format                                   : MPEG-4 Visual
Format settings, BVOP                    : No
Format settings, QPel                    : No
Format settings, GMC                     : No warppoints
Format settings, Matrix                  : Default (H.263)
Codec ID                                 : DIVX
Codec ID/Info                            : Project Mayo
Codec ID/Hint                            : DivX 4
Duration                                 : 1h 49mn
Bit rate                                 : 1 479 Kbps
Width                                    : 720 pixels
Height                                   : 404 pixels
Display aspect ratio                     : 16:9
Frame rate                               : 23.976 fps
Color space                              : YUV
Chroma subsampling                       : 4:2:0
Bit depth                                : 8 bits
Scan type                                : Progressive
Compression mode                         : Lossy
Bits/(Pixel*Frame)                       : 0.212
Stream size                              : 1.14 GiB (79%)
Writing library                          : XviD 67

Audio
ID                                       : 1
Format                                   : AC-3
Format/Info                              : Audio Coding 3
Mode extension                           : CM (complete main)
Format settings, Endianness              : Big
Codec ID                                 : 2000
Duration                                 : 1h 49mn
Bit rate mode                            : Constant
Bit rate                                 : 384 Kbps
Channel(s)                               : 6 channels
Channel positions                        : Front: L C R, Side: L R, LFE
Sampling rate                            : 48.0 KHz
Bit depth                                : 16 bits
Compression mode                         : Lossy
Stream size                              : 302 MiB (20%)
Alignment                                : Aligned on interleaves
Interleave, duration                     : 32 ms (0.77 video frame)
Language                                 : German

Beschreibung:
Confirmation.German.2016.AC3.WEBRiP.XVID-OMS
Chosen: Your Journey Toward Confirmation is a twenty-four-lesson program that provides everything you need to prepare your students both intellectually and spiritually to receive the Sacrament of Confirmation and to become lifelong disciples of Christ. All too often we see teens drift away from the Church after Confirmation. Chosen seeks to reverse this trend by winning over the hearts of teens at a critical time in their lives and keeping them firmly planted within the faith community of the Church. Chosen s carefully designed methodology features highly effective and engaging material conveyed through videos, student workbooks, and classroom experience. Guides for leaders, parents, and sponsors as well as additional online resources make Chosen unlike any program available in the Church today. Chosen has been produced in two formats, this Confirmation edition (Chosen: Your Journey Toward Confirmation) and a Teen Faith Formation edition (Chosen: This Is Your Catholic Faith). Both use the same twenty four lessons and only differ in how Confirmation preparation is emphasized and highlighted in the Confirmation edition.
Direct Download Links | DDL-Links

Ähnliche Releases der Kategorie