Crouching.Tiger.Hidden.Dragon.Sword.of.Destiny.2016.German.Dubbed.DL.2160p.WEB-DL.x264-NIMA4K

25. August 2016 von
Crouching.Tiger.Hidden.Dragon.Sword.of.Destiny.2016.German.Dubbed.DL.2160p.WEB-DL.x264-NIMA4K Warez-World
Aufrufe: 105 Hits
Vote 4 Us
Release:
Crouching Tiger Hidden Dragon Sword of Destiny
Genre:
Abenteuer, Action, Drama
Größe:
30684 MB
Passwort:
Warez-World.org
Sprachen:
Video Codec:
MKV
Bewertung:
Video Vorschau:
Online Stream:
Hinweise:
Auflösung:
3840x1916
Bitrate:
English AC
Video Source:
Webrip
Info:
Zeige NFOVerberge NFO
General
Unique ID                                : 94918806584889757564803974220019602006 (0x4768B27AF5FB776DFFA9C59A11471256)
Complete name                            : Crouching.Tiger.Hidden.Dragon.Sword.of.Destiny.2016.mkv
Format                                   : Matroska
Format version                           : Version 4 / Version 2
File size                                : 29.8 GiB
Duration                                 : 1h 40mn
Overall bit rate                         : 42.5 Mbps
Encoded date                             : UTC 2016-03-13 02:15:51
Writing application                      : mkvmerge v7.3.0 ('Nouages') 64bit built on Oct 23 2014 13:14:01
Writing library                          : libebml v1.3.0 + libmatroska v1.4.1
DURATION                                 : 01:40:28.672000000
NUMBER_OF_FRAMES                         : 188396
NUMBER_OF_BYTES                          : 144688128
_STATISTICS_WRITING_APP                  : mkvmerge v7.3.0 ('Nouages') 64bit built on Oct 23 2014 13:14:01
_STATISTICS_WRITING_DATE_UTC             : 2016-03-13 02:15:51
_STATISTICS_TAGS                         : BPS DURATION NUMBER_OF_FRAMES NUMBER_OF_BYTES

Video
ID                                       : 1
Format                                   : AVC
Format/Info                              : Advanced Video Codec
Format profile                           : High@L5.1
Format settings, CABAC                   : Yes
Format settings, ReFrames                : 5 frames
Codec ID                                 : V_MPEG4/ISO/AVC
Duration                                 : 1h 40mn
Bit rate                                 : 40.9 Mbps
Width                                    : 3 840 pixels
Height                                   : 1 916 pixels
Display aspect ratio                     : 2.004
Frame rate mode                          : Constant
Frame rate                               : 23.976 fps
Color space                              : YUV
Chroma subsampling                       : 4:2:0
Bit depth                                : 8 bits
Scan type                                : Progressive
Bits/(Pixel*Frame)                       : 0.232
Stream size                              : 28.7 GiB (96%)
Writing library                          : x264 core 148 r2638 7599210
Encoding settings                        : cabac=1 / ref=5 / deblock=1:-1:-1 / analyse=0x3:0x133 / me=umh / subme=10 / psy=1 / psy_rd=1.00:0.15 / mixed_ref=1 / me_range=48 / chroma_me=1 / trellis=2 / 8x8dct=1 / cqm=0 / deadzone=21,11 / fast_pskip=1 / chroma_qp_offset=-3 / threads=12 / lookahead_threads=2 / sliced_threads=0 / nr=0 / decimate=0 / interlaced=0 / bluray_compat=0 / constrained_intra=0 / bframes=8 / b_pyramid=2 / b_adapt=2 / b_bias=0 / direct=3 / weightb=1 / open_gop=0 / weightp=2 / keyint=240 / keyint_min=23 / scenecut=40 / intra_refresh=0 / rc_lookahead=60 / rc=crf / mbtree=1 / crf=17.0 / qcomp=0.70 / qpmin=0 / qpmax=69 / qpstep=4 / vbv_maxrate=300000 / vbv_bufsize=300000 / crf_max=0.0 / nal_hrd=none / filler=0 / ip_ratio=1.40 / aq=1:0.90
Default                                  : Yes
Forced                                   : No

Audio #1
ID                                       : 2
Format                                   : AC-3
Format/Info                              : Audio Coding 3
Mode extension                           : CM (complete main)
Format settings, Endianness              : Big
Codec ID                                 : A_AC3
Duration                                 : 1h 40mn
Bit rate mode                            : Constant
Bit rate                                 : 640 Kbps
Channel(s)                               : 6 channels
Channel positions                        : Front: L C R, Side: L R, LFE
Sampling rate                            : 48.0 KHz
Bit depth                                : 16 bits
Compression mode                         : Lossy
Stream size                              : 460 MiB (2%)
Title                                    : AC3 5.1
Language                                 : English
Default                                  : No
Forced                                   : No

Audio #2
ID                                       : 9
Format                                   : AC-3
Format/Info                              : Audio Coding 3
Mode extension                           : CM (complete main)
Format settings, Endianness              : Big
Codec ID                                 : A_AC3
Duration                                 : 1h 40mn
Bit rate mode                            : Constant
Bit rate                                 : 192 Kbps
Channel(s)                               : 2 channels
Channel positions                        : Front: L R
Sampling rate                            : 48.0 KHz
Bit depth                                : 16 bits
Compression mode                         : Lossy
Stream size                              : 138 MiB (0%)
Title                                    : NIMA4K
Language                                 : German
Default                                  : Yes
Forced                                   : Yes

Text #1
ID                                       : 3
Format                                   : UTF-8
Codec ID                                 : S_TEXT/UTF8
Codec ID/Info                            : UTF-8 Plain Text
Title                                    : English
Language                                 : English
Default                                  : No
Forced                                   : No

Text #2
ID                                       : 4
Format                                   : UTF-8
Codec ID                                 : S_TEXT/UTF8
Codec ID/Info                            : UTF-8 Plain Text
Title                                    : English (SDH)
Language                                 : English
Default                                  : No
Forced                                   : No

Text #3
ID                                       : 5
Format                                   : UTF-8
Codec ID                                 : S_TEXT/UTF8
Codec ID/Info                            : UTF-8 Plain Text
Title                                    : Dutch
Language                                 : Dutch
Default                                  : No
Forced                                   : No

Text #4
ID                                       : 6
Format                                   : UTF-8
Codec ID                                 : S_TEXT/UTF8
Codec ID/Info                            : UTF-8 Plain Text
Title                                    : French
Language                                 : French
Default                                  : No
Forced                                   : No

Text #5
ID                                       : 7
Format                                   : UTF-8
Codec ID                                 : S_TEXT/UTF8
Codec ID/Info                            : UTF-8 Plain Text
Title                                    : German
Language                                 : German
Default                                  : No
Forced                                   : No

Text #6
ID                                       : 8
Format                                   : UTF-8
Codec ID                                 : S_TEXT/UTF8
Codec ID/Info                            : UTF-8 Plain Text
Title                                    : Italian
Language                                 : Italian
Default                                  : No
Forced                                   : No


General
Unique ID                                : 94918806584889757564803974220019602006 (0x4768B27AF5FB776DFFA9C59A11471256)
Complete name                            : Crouching.Tiger.Hidden.Dragon.Sword.of.Destiny.2016.German.Dubbed.DL.2160p.WEB-DL.x264-NIMA4K.mkv
Format                                   : Matroska
Format version                           : Version 4 / Version 2
File size                                : 29.8 GiB
Duration                                 : 1h 40mn
Overall bit rate                         : 42.5 Mbps
Encoded date                             : UTC 2016-03-13 02:15:51
Writing application                      : mkvmerge v7.3.0 ('Nouages') 64bit built on Oct 23 2014 13:14:01
Writing library                          : libebml v1.3.0 + libmatroska v1.4.1
DURATION                                 : 01:40:28.672000000
NUMBER_OF_FRAMES                         : 188396
NUMBER_OF_BYTES                          : 144688128
_STATISTICS_WRITING_APP                  : mkvmerge v7.3.0 ('Nouages') 64bit built on Oct 23 2014 13:14:01
_STATISTICS_WRITING_DATE_UTC             : 2016-03-13 02:15:51
_STATISTICS_TAGS                         : BPS DURATION NUMBER_OF_FRAMES NUMBER_OF_BYTES

Video
ID                                       : 1
Format                                   : AVC
Format/Info                              : Advanced Video Codec
Format profile                           : High@L5.1
Format settings, CABAC                   : Yes
Format settings, ReFrames                : 5 frames
Codec ID                                 : V_MPEG4/ISO/AVC
Duration                                 : 1h 40mn
Bit rate                                 : 40.9 Mbps
Width                                    : 3 840 pixels
Height                                   : 1 916 pixels
Display aspect ratio                     : 2.004
Frame rate mode                          : Constant
Frame rate                               : 23.976 fps
Color space                              : YUV
Chroma subsampling                       : 4:2:0
Bit depth                                : 8 bits
Scan type                                : Progressive
Bits/(Pixel*Frame)                       : 0.232
Stream size                              : 28.7 GiB (96%)
Writing library                          : x264 core 148 r2638 7599210
Encoding settings                        : cabac=1 / ref=5 / deblock=1:-1:-1 / analyse=0x3:0x133 / me=umh / subme=10 / psy=1 / psy_rd=1.00:0.15 / mixed_ref=1 / me_range=48 / chroma_me=1 / trellis=2 / 8x8dct=1 / cqm=0 / deadzone=21,11 / fast_pskip=1 / chroma_qp_offset=-3 / threads=12 / lookahead_threads=2 / sliced_threads=0 / nr=0 / decimate=0 / interlaced=0 / bluray_compat=0 / constrained_intra=0 / bframes=8 / b_pyramid=2 / b_adapt=2 / b_bias=0 / direct=3 / weightb=1 / open_gop=0 / weightp=2 / keyint=240 / keyint_min=23 / scenecut=40 / intra_refresh=0 / rc_lookahead=60 / rc=crf / mbtree=1 / crf=17.0 / qcomp=0.70 / qpmin=0 / qpmax=69 / qpstep=4 / vbv_maxrate=300000 / vbv_bufsize=300000 / crf_max=0.0 / nal_hrd=none / filler=0 / ip_ratio=1.40 / aq=1:0.90
Default                                  : Yes
Forced                                   : No

Audio #1
ID                                       : 2
Format                                   : AC-3
Format/Info                              : Audio Coding 3
Mode extension                           : CM (complete main)
Format settings, Endianness              : Big
Codec ID                                 : A_AC3
Duration                                 : 1h 40mn
Bit rate mode                            : Constant
Bit rate                                 : 640 Kbps
Channel(s)                               : 6 channels
Channel positions                        : Front: L C R, Side: L R, LFE
Sampling rate                            : 48.0 KHz
Bit depth                                : 16 bits
Compression mode                         : Lossy
Stream size                              : 460 MiB (2%)
Title                                    : AC3 5.1
Language                                 : English
Default                                  : No
Forced                                   : No

Audio #2
ID                                       : 9
Format                                   : AC-3
Format/Info                              : Audio Coding 3
Mode extension                           : CM (complete main)
Format settings, Endianness              : Big
Codec ID                                 : A_AC3
Duration                                 : 1h 40mn
Bit rate mode                            : Constant
Bit rate                                 : 192 Kbps
Channel(s)                               : 2 channels
Channel positions                        : Front: L R
Sampling rate                            : 48.0 KHz
Bit depth                                : 16 bits
Compression mode                         : Lossy
Stream size                              : 138 MiB (0%)
Title                                    : NIMA4K
Language                                 : German
Default                                  : Yes
Forced                                   : Yes

Text #1
ID                                       : 3
Format                                   : UTF-8
Codec ID                                 : S_TEXT/UTF8
Codec ID/Info                            : UTF-8 Plain Text
Title                                    : English
Language                                 : English
Default                                  : No
Forced                                   : No

Text #2
ID                                       : 4
Format                                   : UTF-8
Codec ID                                 : S_TEXT/UTF8
Codec ID/Info                            : UTF-8 Plain Text
Title                                    : English (SDH)
Language                                 : English
Default                                  : No
Forced                                   : No

Text #3
ID                                       : 5
Format                                   : UTF-8
Codec ID                                 : S_TEXT/UTF8
Codec ID/Info                            : UTF-8 Plain Text
Title                                    : Dutch
Language                                 : Dutch
Default                                  : No
Forced                                   : No

Text #4
ID                                       : 6
Format                                   : UTF-8
Codec ID                                 : S_TEXT/UTF8
Codec ID/Info                            : UTF-8 Plain Text
Title                                    : French
Language                                 : French
Default                                  : No
Forced                                   : No

Text #5
ID                                       : 7
Format                                   : UTF-8
Codec ID                                 : S_TEXT/UTF8
Codec ID/Info                            : UTF-8 Plain Text
Title                                    : German
Language                                 : German
Default                                  : No
Forced                                   : No

Text #6
ID                                       : 8
Format                                   : UTF-8
Codec ID                                 : S_TEXT/UTF8
Codec ID/Info                            : UTF-8 Plain Text
Title                                    : Italian
Language                                 : Italian
Default                                  : No
Forced                                   : No


Beschreibung:
Crouching.Tiger.Hidden.Dragon.Sword.of.Destiny.2016.German.Dubbed.DL.2160p.WEB-DL.x264-NIMA4K
17 Jahre nach dem Tod des Schwertmeisters Li Mu Bai hat seine frühere Geliebte Yu Shu Lien (Michelle Yeoh) der Kampfkunst abgeschworen und sich zurückgezogen. Doch noch immer sind zahlreiche machthungrige Krieger hinter dem legendären Grünen Schwert der Unterwelt her. Als der finstere Kriegsherr Hades Dai (Jason Scott Lee) auf der Bildfläche erscheint und drauf und dran ist, die mächtige Waffe in seinen Besitz zu bringen, sieht sich Yu Shu Lien gezwungen, das Schwert erneut mit allen Mitteln zu beschützen. Als dann aber auch noch der totgeglaubte Silent Wolf (Donnie Yen), ein Mann aus ihrer Vergangenheit, plötzlich wieder auftaucht und in ihr alte Gefühle weckt, macht dies alles nur komplizierter.
GeneralWidth : 3 840 pixels Height : 1 608 pixels Title : German DTS 5.1 768 kbps | GER BD Language : German
Direct Download Links | DDL-Links

Ähnliche Releases der Kategorie