The.Darkness.2016.1080p.HC.WEBRip.x264.AAC2.0-STUTTERSHIT

28. Mai 2016 von
The.Darkness.2016.1080p.HC.WEBRip.x264.AAC2.0-STUTTERSHIT Warez-World
Aufrufe: 250 Hits
Vote 4 Us
Release:
The Darkness WEB-RIP
Genre:
Thriller
Laufzeit:
92 Min.
Größe:
2060 MB
Passwort:
Warez-World.org
Sprachen:
Video Codec:
MPEG-4 H.264 / AVC
Audio Stream:
Dolby Digital 5.1
Bewertung:
Video Vorschau:
Online Stream:
Info:
Zeige NFOVerberge NFO
[URL=http://imagecurl.com/viewer.php?file=37549567218040167773.png][IMG]http://imagecurl.com/images/37549567218040167773_thumb.png[/IMG][/URL]
[URL=http://imagecurl.com/viewer.php?file=87502736767670700143.png][IMG]http://imagecurl.com/images/87502736767670700143_thumb.png[/IMG][/URL]
[URL=http://imagecurl.com/viewer.php?file=19649537591364710794.png][IMG]http://imagecurl.com/images/19649537591364710794_thumb.png[/IMG][/URL]
[URL=http://imagecurl.com/viewer.php?file=11558019561164485655.png][IMG]http://imagecurl.com/images/11558019561164485655_thumb.png[/IMG][/URL]
[URL=http://imagecurl.com/viewer.php?file=34997387372476188310.png][IMG]http://imagecurl.com/images/34997387372476188310_thumb.png[/IMG][/URL]
[URL=http://imagecurl.com/viewer.php?file=89127178311058850012.png][IMG]http://imagecurl.com/images/89127178311058850012_thumb.png[/IMG][/URL]



[mediainfo]
Video
ID                                       : 1
Format                                   : AVC
Format/Info                              : Advanced Video Codec
Format profile                           : High@L4
Format settings, CABAC                   : Yes
Format settings, ReFrames                : 4 frames
Codec ID                                 : avc1
Codec ID/Info                            : Advanced Video Coding
Duration                                 : 1h 28mn
Bit rate mode                            : Variable
Bit rate                                 : 3 019 Kbps
Maximum bit rate                         : 40.0 Mbps
Width                                    : 1 920 pixels
Height                                   : 800 pixels
Display aspect ratio                     : 2.40:1
Frame rate mode                          : Constant
Frame rate                               : 25.000 fps
Color space                              : YUV
Chroma subsampling                       : 4:2:0
Bit depth                                : 8 bits
Scan type                                : Progressive
Bits/(Pixel*Frame)                       : 0.079
Stream size                              : 1.87 GiB (93%)
Title                                    : The.Darkness.2016.1080p.HC.WEBRip.x264.AAC2.0-STUTTERSHIT
Color range                              : Limited
Color primaries                          : BT.709
Transfer characteristics                 : BT.709
Matrix coefficients                      : BT.709

Audio
ID                                       : 2
Format                                   : AAC
Format/Info                              : Advanced Audio Codec
Format profile                           : LC
Codec ID                                 : 40
Duration                                 : 1h 28mn
Bit rate mode                            : Constant
Bit rate                                 : 224 Kbps
Channel(s)                               : 2 channels
Channel positions                        : Front: L R
Sampling rate                            : 44.1 KHz
Frame rate                               : 43.066 fps (1024 spf)
Compression mode                         : Lossy
Stream size                              : 142 MiB (7%)
Title                                    : The.Darkness.2016.1080p.HC.WEBRip.x264.AAC2.0-STUTTERSHIT
Default                                  : Yes
Alternate group                          : 1



[/mediainfo]
Beschreibung:
The.Darkness.2016.1080p.HC.WEBRip.x264.AAC2.0-STUTTERSHIT
Als Peter und und Bronny Taylor mit ihren beiden Kindern Stephanie und Mikey von einem Urlaub am Grand Canyon nach Hause zurückkehren, ahnen sie nicht, dass sie ein uraltes, übernatürliches Wesen mitgebracht haben. Als im trauten Heim dann seltsame Dinge geschehen, suchen die Eltern die Schuld zunächst bei ihren Kindern, doch schon bald beginnt der Überlebenskampf gegen das Böse.
Direct Download Links | DDL-Links

Ähnliche Releases der Kategorie