The.Darkness.2016.720p.HC.WEBRip.XviD.MP3-STUTTERSHIT

27. Mai 2016 von
The.Darkness.2016.720p.HC.WEBRip.XviD.MP3-STUTTERSHIT Warez-World
Aufrufe: 267 Hits
Vote 4 Us
Release:
The Darkness WEB-RIP
Genre:
Thriller
Laufzeit:
92 Min.
Größe:
1897 MB
Passwort:
Warez-World.org
Sprachen:
Video Codec:
MPEG-4 DivX / Xvid
Audio Stream:
Dolby Digital 5.1
Bewertung:
Video Vorschau:
Online Stream:
Info:
Zeige NFOVerberge NFO
[URL=http://imagecurl.com/viewer.php?file=77951645738274494964.png][IMG]http://imagecurl.com/images/77951645738274494964_thumb.png[/IMG][/URL]
[URL=http://imagecurl.com/viewer.php?file=87313739413028553612.png][IMG]http://imagecurl.com/images/87313739413028553612_thumb.png[/IMG][/URL]
[URL=http://imagecurl.com/viewer.php?file=03963227219772110113.png][IMG]http://imagecurl.com/images/03963227219772110113_thumb.png[/IMG][/URL]
[URL=http://imagecurl.com/viewer.php?file=58985187829027389859.png][IMG]http://imagecurl.com/images/58985187829027389859_thumb.png[/IMG][/URL]
[URL=http://imagecurl.com/viewer.php?file=08504238866254928795.png][IMG]http://imagecurl.com/images/08504238866254928795_thumb.png[/IMG][/URL]
[URL=http://imagecurl.com/viewer.php?file=10648260446318778615.png][IMG]http://imagecurl.com/images/10648260446318778615_thumb.png[/IMG][/URL]



[mediainfo]
Video
ID                                       : 0
Format                                   : MPEG-4 Visual
Format profile                           : Simple@L5
Format settings, BVOP                    : No
Format settings, QPel                    : No
Format settings, GMC                     : No warppoints
Format settings, Matrix                  : Default (H.263)
Codec ID                                 : XVID
Codec ID/Hint                            : XviD
Duration                                 : 1h 28mn
Bit rate                                 : 2 790 Kbps
Width                                    : 1 280 pixels
Height                                   : 534 pixels
Display aspect ratio                     : 2.40:1
Frame rate                               : 25.000 fps
Color space                              : YUV
Chroma subsampling                       : 4:2:0
Bit depth                                : 8 bits
Scan type                                : Progressive
Compression mode                         : Lossy
Bits/(Pixel*Frame)                       : 0.163
Stream size                              : 1.73 GiB (93%)
Writing library                          : Lavc57.16.101

Audio
ID                                       : 1
Format                                   : MPEG Audio
Format version                           : Version 1
Format profile                           : Layer 3
Mode                                     : Joint stereo
Mode extension                           : MS Stereo
Codec ID                                 : 55
Codec ID/Hint                            : MP3
Duration                                 : 1h 28mn
Bit rate mode                            : Constant
Bit rate                                 : 192 Kbps
Channel(s)                               : 2 channels
Sampling rate                            : 44.1 KHz
Compression mode                         : Lossy
Stream size                              : 122 MiB (6%)
Alignment                                : Aligned on interleaves
Interleave, duration                     : 26 ms (0.65 video frame)
Interleave, preload duration             : 522 ms
Writing library                          : LAME3.99.5



[/mediainfo]
Beschreibung:
The.Darkness.2016.720p.HC.WEBRip.XviD.MP3-STUTTERSHIT
Als Peter und und Bronny Taylor mit ihren beiden Kindern Stephanie und Mikey von einem Urlaub am Grand Canyon nach Hause zurückkehren, ahnen sie nicht, dass sie ein uraltes, übernatürliches Wesen mitgebracht haben. Als im trauten Heim dann seltsame Dinge geschehen, suchen die Eltern die Schuld zunächst bei ihren Kindern, doch schon bald beginnt der Überlebenskampf gegen das Böse.
Direct Download Links | DDL-Links

Ähnliche Releases der Kategorie