The.Darkness.2016.HC.WEBRip.x264-STUTTERSHIT

27. Mai 2016 von
The.Darkness.2016.HC.WEBRip.x264-STUTTERSHIT Warez-World
Aufrufe: 183 Hits
Vote 4 Us
Release:
The Darkness 2016 HC WEB-RIP
Genre:
Thriller
Laufzeit:
92 Min.
Größe:
773 MB
Passwort:
Warez-World.org
Sprachen:
Video Codec:
MPEG-4 H.264 / AVC
Audio Stream:
Dolby Digital 5.1
Bewertung:
Video Vorschau:
Online Stream:
Info:
Zeige NFOVerberge NFO
[URL=http://imagecurl.com/viewer.php?file=67404762487982803164.png][IMG]http://imagecurl.com/images/67404762487982803164_thumb.png[/IMG][/URL]
[URL=http://imagecurl.com/viewer.php?file=22914683185047659241.png][IMG]http://imagecurl.com/images/22914683185047659241_thumb.png[/IMG][/URL]
[URL=http://imagecurl.com/viewer.php?file=17319641719481934707.png][IMG]http://imagecurl.com/images/17319641719481934707_thumb.png[/IMG][/URL]
[URL=http://imagecurl.com/viewer.php?file=07398534116484506572.png][IMG]http://imagecurl.com/images/07398534116484506572_thumb.png[/IMG][/URL]
[URL=http://imagecurl.com/viewer.php?file=04250649936672759906.png][IMG]http://imagecurl.com/images/04250649936672759906_thumb.png[/IMG][/URL]
[URL=http://imagecurl.com/viewer.php?file=20018496599958289013.png][IMG]http://imagecurl.com/images/20018496599958289013_thumb.png[/IMG][/URL]



[mediainfo]
Video
ID                                       : 1
Format                                   : AVC
Format/Info                              : Advanced Video Codec
Format profile                           : High@L3.1
Format settings, CABAC                   : Yes
Format settings, ReFrames                : 5 frames
Codec ID                                 : avc1
Codec ID/Info                            : Advanced Video Coding
Duration                                 : 1h 28mn
Bit rate                                 : 1 100 Kbps
Width                                    : 720 pixels
Height                                   : 304 pixels
Display aspect ratio                     : 2.35:1
Frame rate mode                          : Constant
Frame rate                               : 25.000 fps
Color space                              : YUV
Chroma subsampling                       : 4:2:0
Bit depth                                : 8 bits
Scan type                                : Progressive
Bits/(Pixel*Frame)                       : 0.201
Stream size                              : 688 MiB (89%)
Title                                    : The.Darkness.2016.HC.WEBRip.x264-STUTTERSHIT
Writing library                          : x264 core 148 r2601 a0cd7d3
Encoding settings                        : cabac=1 / ref=5 / deblock=1:-2:-2 / analyse=0x3:0x113 / me=umh / subme=8 / psy=1 / psy_rd=0.90:0.00 / mixed_ref=1 / me_range=16 / chroma_me=1 / trellis=1 / 8x8dct=1 / cqm=0 / deadzone=21,11 / fast_pskip=1 / chroma_qp_offset=-2 / threads=8 / lookahead_threads=2 / sliced_threads=0 / nr=0 / decimate=1 / interlaced=0 / bluray_compat=0 / constrained_intra=0 / bframes=3 / b_pyramid=2 / b_adapt=2 / b_bias=0 / direct=3 / weightb=1 / open_gop=0 / weightp=2 / keyint=250 / keyint_min=25 / scenecut=40 / intra_refresh=0 / rc_lookahead=50 / rc=abr / mbtree=1 / bitrate=1100 / ratetol=1.0 / qcomp=0.60 / qpmin=0 / qpmax=69 / qpstep=4 / vbv_maxrate=31250 / vbv_bufsize=31250 / nal_hrd=none / filler=0 / ip_ratio=1.40 / aq=1:1.00

Audio
ID                                       : 2
Format                                   : AAC
Format/Info                              : Advanced Audio Codec
Format profile                           : LC
Codec ID                                 : 40
Duration                                 : 1h 28mn
Duration_LastFrame                       : 46ms
Bit rate mode                            : Variable
Bit rate                                 : 128 Kbps
Maximum bit rate                         : 31.3 Mbps
Channel(s)                               : 2 channels
Channel positions                        : Front: L R
Sampling rate                            : 44.1 KHz
Frame rate                               : 43.066 fps (1024 spf)
Compression mode                         : Lossy
Stream size                              : 81.1 MiB (10%)
Title                                    : The.Darkness.2016.HC.WEBRip.x264-STUTTERSHIT
Default                                  : Yes
Alternate group                          : 1



[/mediainfo]
Beschreibung:
The.Darkness.2016.HC.WEBRip.x264-STUTTERSHIT
Als Peter und und Bronny Taylor mit ihren beiden Kindern Stephanie und Mikey von einem Urlaub am Grand Canyon nach Hause zurückkehren, ahnen sie nicht, dass sie ein uraltes, übernatürliches Wesen mitgebracht haben. Als im trauten Heim dann seltsame Dinge geschehen, suchen die Eltern die Schuld zunächst bei ihren Kindern, doch schon bald beginnt der Überlebenskampf gegen das Böse.
Direct Download Links | DDL-Links

Ähnliche Releases der Kategorie