The.Darkness.2016.HC.WEBRip.XviD.MP3-STUTTERSHIT

27. Mai 2016 von
The.Darkness.2016.HC.WEBRip.XviD.MP3-STUTTERSHIT Warez-World
Aufrufe: 255 Hits
Vote 4 Us
Release:
The Darkness 2016 HC WEB-RIP
Genre:
Thriller
Laufzeit:
92 Min.
Größe:
975 MB
Passwort:
Warez-World.org
Sprachen:
Video Codec:
MPEG-4 DivX / Xvid
Audio Stream:
Dolby Digital 5.1
Bewertung:
Video Vorschau:
Online Stream:
Info:
Zeige NFOVerberge NFO
[URL=http://imagecurl.com/viewer.php?file=91802410051818337093.png][IMG]http://imagecurl.com/images/91802410051818337093_thumb.png[/IMG][/URL]
[URL=http://imagecurl.com/viewer.php?file=84692602521908926909.png][IMG]http://imagecurl.com/images/84692602521908926909_thumb.png[/IMG][/URL]
[URL=http://imagecurl.com/viewer.php?file=05609153787460330176.png][IMG]http://imagecurl.com/images/05609153787460330176_thumb.png[/IMG][/URL]
[URL=http://imagecurl.com/viewer.php?file=18001960662373994258.png][IMG]http://imagecurl.com/images/18001960662373994258_thumb.png[/IMG][/URL]
[URL=http://imagecurl.com/viewer.php?file=62333345750193199347.png][IMG]http://imagecurl.com/images/62333345750193199347_thumb.png[/IMG][/URL]
[URL=http://imagecurl.com/viewer.php?file=67976200385755728287.png][IMG]http://imagecurl.com/images/67976200385755728287_thumb.png[/IMG][/URL]



[mediainfo]
Video
ID                                       : 0
Format                                   : MPEG-4 Visual
Format profile                           : Simple@L5
Format settings, BVOP                    : No
Format settings, QPel                    : No
Format settings, GMC                     : No warppoints
Format settings, Matrix                  : Default (H.263)
Codec ID                                 : XVID
Codec ID/Hint                            : XviD
Duration                                 : 1h 28mn
Bit rate                                 : 1 334 Kbps
Width                                    : 720 pixels
Height                                   : 304 pixels
Display aspect ratio                     : 2.35:1
Frame rate                               : 25.000 fps
Color space                              : YUV
Chroma subsampling                       : 4:2:0
Bit depth                                : 8 bits
Scan type                                : Progressive
Compression mode                         : Lossy
Bits/(Pixel*Frame)                       : 0.244
Stream size                              : 845 MiB (87%)
Writing library                          : Lavc57.16.101

Audio
ID                                       : 1
Format                                   : MPEG Audio
Format version                           : Version 1
Format profile                           : Layer 3
Mode                                     : Joint stereo
Mode extension                           : MS Stereo
Codec ID                                 : 55
Codec ID/Hint                            : MP3
Duration                                 : 1h 28mn
Bit rate mode                            : Constant
Bit rate                                 : 192 Kbps
Channel(s)                               : 2 channels
Sampling rate                            : 44.1 KHz
Compression mode                         : Lossy
Stream size                              : 122 MiB (12%)
Alignment                                : Aligned on interleaves
Interleave, duration                     : 26 ms (0.65 video frame)
Interleave, preload duration             : 522 ms
Writing library                          : LAME3.99.5



[/mediainfo]
Beschreibung:
The.Darkness.2016.HC.WEBRip.XviD.MP3-STUTTERSHIT
Als Peter und und Bronny Taylor mit ihren beiden Kindern Stephanie und Mikey von einem Urlaub am Grand Canyon nach Hause zurückkehren, ahnen sie nicht, dass sie ein uraltes, übernatürliches Wesen mitgebracht haben. Als im trauten Heim dann seltsame Dinge geschehen, suchen die Eltern die Schuld zunächst bei ihren Kindern, doch schon bald beginnt der Überlebenskampf gegen das Böse.
Direct Download Links | DDL-Links

Ähnliche Releases der Kategorie