Das.Baumhaus.Betreten.verboten.2014.UNCUT.German.BDRip.Xvid-NightCity

21. April 2016 von
Das.Baumhaus.Betreten.verboten.2014.UNCUT.German.BDRip.Xvid-NightCity Warez-World
Aufrufe: 58 Hits
Vote 4 Us
Release:
Das Baumhaus Betreten verboten BD-RIP
Genre:
Thriller
Laufzeit:
100 Min.
Größe:
808 MB
Passwort:
Warez-World.org
Sprachen:
Video Codec:
MPEG-4 DivX / Xvid
Audio Stream:
Stereo
Bewertung:
Video Vorschau:
Online Stream:
Hinweise:
Uncut
Info:
Zeige NFOVerberge NFO
General
Format                                   : AVI
Format/Info                              : Audio Video Interleave
File size                                : 808 MiB
Duration                                 : 1h 40mn
Overall bit rate                         : 1 129 Kbps
Movie name                               : DAS BAUMHAUS - BETRETEN VERBOTEN - 480P - R0CKED
Writing application                      : Lavf54.63.104

Video
ID                                       : 0
Format                                   : xvid
Codec ID                                 : xvid
Duration                                 : 1h 40mn
Bit rate                                 : 989 Kbps
Width                                    : 720 pixels
Height                                   : 306 pixels
Display aspect ratio                     : 2.35:1
Frame rate                               : 23.976 fps
Bits/(Pixel*Frame)                       : 0.187
Stream size                              : 708 MiB (88%)

Audio
ID                                       : 1
Format                                   : MPEG Audio
Format version                           : Version 1
Format profile                           : Layer 3
Mode                                     : Joint stereo
Mode extension                           : MS Stereo
Codec ID                                 : 55
Codec ID/Hint                            : MP3
Duration                                 : 1h 40mn
Bit rate mode                            : Constant
Bit rate                                 : 128 Kbps
Channel(s)                               : 2 channels
Sampling rate                            : 44.1 KHz
Compression mode                         : Lossy
Stream size                              : 91.6 MiB (11%)
Alignment                                : Aligned on interleaves
Interleave, duration                     : 26 ms (0.63 video frame)

Beschreibung:
Das.Baumhaus.Betreten.verboten.2014.UNCUT.German.BDRip.Xvid-NightCity
Die Brüder Killian und Crawford schleichen sich nachts in den Wald, um Feuerwerk zu zünden. Dabei entdecken sie ein verstecktes Baumhaus. In diesem Baumhaus finden sie Elizabeth, die als vermisst gilt. Sie ist schwer verletzt und nicht in der Lage zu berichten, was passiert ist. Sie erwähnt nur ein "Ding", das ihren Bruder hat. Crawford holt Hilfe, während Killian bei Elizabeth bleibt. Doch Crwaford kehrt nie zurück und Killian und Elizabeth werden bald im Baumhaus von etwas Unbekanntem attackiert und belagert. Sie müssen einen Weg aus diesem Alptraum finden, auch um zu erfahren, was mit ihren Geschwistern passiert ist.
Direct Download Links | DDL-Links

Ähnliche Releases der Kategorie