Das.Maerchen.der.Maerchen.2015.German.AC3.BDRiP.XViD-XDD

13. April 2016 von
Das.Maerchen.der.Maerchen.2015.German.AC3.BDRiP.XViD-XDD Warez-World
Aufrufe: 39 Hits
Vote 4 Us
Release:
Das Märchen der Märchen BD-RIP
Genre:
Adventure
Laufzeit:
134 Min.
Größe:
1745 MB
Passwort:
Warez-World.org
Sprachen:
Video Codec:
MPEG-4 DivX / Xvid
Audio Stream:
Dolby Digital 5.1
Bewertung:
Video Vorschau:
Online Stream:
Info:
Zeige NFOVerberge NFO
General
Format                                   : AVI
Format/Info                              : Audio Video Interleave
File size                                : 1.70 GiB
Duration                                 : 2h 13mn
Overall bit rate                         : 1 823 Kbps
Movie name                               : Strashnye.skazki.2015.D.BDRip.1.46GB_MegaPeer_by_Twi7ter
Director                                 : Twi7ter
Genre                                    : Fantasy/Romance
Writing application                      : VirtualDubMod 1.5.10.2 (build 2540/release)
Writing library                          : VirtualDubMod build 2540/release

Video
ID                                       : 0
Format                                   : MPEG-4 Visual
Format settings, BVOP                    : 1
Format settings, QPel                    : No
Format settings, GMC                     : No warppoints
Format settings, Matrix                  : Custom
Codec ID                                 : XVID
Codec ID/Hint                            : XviD
Duration                                 : 2h 13mn
Bit rate                                 : 1 365 Kbps
Width                                    : 720 pixels
Height                                   : 304 pixels
Display aspect ratio                     : 2.35:1
Frame rate                               : 24.000 fps
Color space                              : YUV
Chroma subsampling                       : 4:2:0
Bit depth                                : 8 bits
Scan type                                : Progressive
Compression mode                         : Lossy
Bits/(Pixel*Frame)                       : 0.260
Stream size                              : 1.28 GiB (75%)
Writing library                          : XviD 73

Audio
ID                                       : 1
Format                                   : AC-3
Format/Info                              : Audio Coding 3
Mode extension                           : CM (complete main)
Format settings, Endianness              : Big
Codec ID                                 : 2000
Duration                                 : 2h 13mn
Bit rate mode                            : Constant
Bit rate                                 : 448 Kbps
Channel(s)                               : 6 channels
Channel positions                        : Front: L C R, Side: L R, LFE
Sampling rate                            : 48.0 KHz
Compression mode                         : Lossy
Stream size                              : 429 MiB (25%)
Alignment                                : Split accross interleaves
Interleave, duration                     : 42 ms (1.00 video frame)
Interleave, preload duration             : 500 ms

Beschreibung:
Das.Maerchen.der.Maerchen.2015.German.AC3.BDRiP.XViD-XDD
Petja, Schüler der dritten Klasse, kommt morgens nur schwer aus dem Bett und trödelt auch sonst den ganzen Tag herum. So fällt er einem bösen Zauberer in die Hände, der den Schulkindern alle verbummelte Zeit wegschnappt, um sich Verjüngungskuchen daraus zu backen. Während Petja sich in einen Großvater mit weißem Bart verwandelt, den niemand erkennt, wird der Zauberer jung. Und weil er nichts gelernt hat, besitzt er nicht einmal Geld, um sich ein Stück Gebäck kaufen zu können. Im Zauberwald erfährt er von drei weiteren verwandelten Kindern. Wenn er sie findet, müssen sie gemeinsam die Zeiger einer Uhr um drei Runden zurückdrehen, um dem Spuk ein Ende zu setzen. Eine abenteuerliche Suche beginnt.
Direct Download Links | DDL-Links

Ähnliche Releases der Kategorie