Death.Note.COMPLETE.German.ML.BluRay.1080p.x264-Redc4t

8. September 2016 von
Death.Note.COMPLETE.German.ML.BluRay.1080p.x264-Redc4t Warez-World
Aufrufe: 86 Hits
Vote 4 Us
Release:
Death Note BD
Genre:
Anime
Laufzeit:
23 Min.
Größe:
53661 MB
Passwort:
Warez-World.org
Sprachen:
Video Codec:
MPEG-4 H.264 / AVC
Audio Stream:
DTS 5.1
Bewertung:
Video Vorschau:
Online Stream:
Info:
Zeige NFOVerberge NFO
Info: Video stammt von der vor kurzem erschienen Viz-Blu-ray und wurde sorgfältig von Red encoded. Der japanische und englische Ton (DTS 2.0) stammt auch von der BD, der deutsche allerdings stammt von der dt. DVD und wurde genau angepasst. Um Qualitätsverlust zu vermeiden, ist er in DTS 5.1 kodiert. Subs wurden mit FMA1394 als englische Vorlage komplett überarbeitet (das heißt retimed und die Schilder komplett angepasst), es sind sowohl engsub als auch gersub (mit dem Sub der DVD als Vorlage) in Full als auch in Forced (Schilder und Kara) vorhanden.

General
Format                                   : Matroska
Format version                           : Version 4 / Version 2
File size                                : 1.40 GiB
Duration                                 : 22mn 58s
Overall bit rate                         : 8 748 Kbps
Movie name                               : Death Note - 03 - Redc4t
Encoded date                             : UTC 2016-04-12 20:18:09
Writing application                      : mkvmerge v7.8.0 ('River Man') 64bit built on Mar 28 2015 07:20:28
Writing library                          : libebml v1.3.1 + libmatroska v1.4.2
Attachements                             : 8bitoperator.ttf / ArtificeSSK.ttf / Cabin-BoldItalic.ttf / Cabin-Bold.ttf / daniel_0.ttf / DFSinSo-W3-WING-RKSJ-H.ttf / Dominican.ttf / PATRICK_0.TTF / Qlassik-Medium.ttf / VCR_OSD_MONO_1.001.ttf
DURATION                                 : 00:22:58.347000000
NUMBER_OF_FRAMES                         : 129220
NUMBER_OF_BYTES                          : 260119860
_STATISTICS_WRITING_APP                  : mkvmerge v8.2.0 ('World of Adventure') 64bit
_STATISTICS_WRITING_DATE_UTC             : 2016-04-11 13:12:26
_STATISTICS_TAGS                         : BPS DURATION NUMBER_OF_FRAMES NUMBER_OF_BYTES

Video
ID                                       : 1
Format                                   : AVC
Format/Info                              : Advanced Video Codec
Format settings, CABAC                   : Yes
Format settings, ReFrames                : 4 frames
Codec ID                                 : V_MPEG4/ISO/AVC
Duration                                 : 22mn 58s
Bit rate                                 : 4 046 Kbps
Width                                    : 1 920 pixels
Height                                   : 1 080 pixels
Display aspect ratio                     : 16:9
Frame rate mode                          : Constant
Frame rate                               : 23.976 fps
Color space                              : YUV
Chroma subsampling                       : 4:2:0
Bit depth                                : 8 bits
Scan type                                : Progressive
Bits/(Pixel*Frame)                       : 0.081
Stream size                              : 665 MiB (46%)
Title                                    : AVC [Redc4t]
Writing library                          : x264 core 142 r2491 24e4fed
Encoding settings                        : cabac=1 / ref=4 / deblock=1:1:1 / analyse=0x3:0x113 / me=umh / subme=8 / psy=1 / psy_rd=0.40:0.00 / mixed_ref=1 / me_range=16 / chroma_me=1 / trellis=1 / 8x8dct=1 / cqm=0 / deadzone=21,11 / fast_pskip=1 / chroma_qp_offset=-2 / threads=12 / lookahead_threads=3 / sliced_threads=0 / nr=0 / decimate=1 / interlaced=0 / bluray_compat=0 / constrained_intra=0 / bframes=5 / b_pyramid=2 / b_adapt=2 / b_bias=0 / direct=3 / weightb=1 / open_gop=0 / weightp=2 / keyint=250 / keyint_min=23 / scenecut=40 / intra_refresh=0 / rc_lookahead=50 / rc=crf / mbtree=1 / crf=19.0 / qcomp=0.60 / qpmin=0 / qpmax=69 / qpstep=4 / ip_ratio=1.40 / aq=1:0.60
Language                                 : Japanese
Default                                  : Yes
Forced                                   : No
DURATION                                 : 00:22:57.960000000
NUMBER_OF_FRAMES                         : 33038
NUMBER_OF_BYTES                          : 711753633
_STATISTICS_WRITING_APP                  : mkvmerge v8.2.0 ('World of Adventure') 64bit
_STATISTICS_WRITING_DATE_UTC             : 2016-04-11 13:12:26
_STATISTICS_TAGS                         : BPS DURATION NUMBER_OF_FRAMES NUMBER_OF_BYTES

Audio #1
ID                                       : 2
Format                                   : DTS
Format/Info                              : Digital Theater Systems
Mode                                     : 16
Format settings, Endianness              : Big
Codec ID                                 : A_DTS
Duration                                 : 22mn 58s
Bit rate mode                            : Constant
Bit rate                                 : 1 509 Kbps
Channel(s)                               : 2 channels
Channel positions                        : Front: L R
Sampling rate                            : 48.0 KHz
Bit depth                                : 16 bits
Compression mode                         : Lossy
Stream size                              : 248 MiB (17%)
Title                                    : DTS 2.0 [Redc4t]
Language                                 : Japanese
Default                                  : No
Forced                                   : No

Audio #2
ID                                       : 3
Format                                   : DTS
Format/Info                              : Digital Theater Systems
Mode                                     : 16
Format settings, Endianness              : Big
Codec ID                                 : A_DTS
Duration                                 : 22mn 58s
Bit rate mode                            : Constant
Bit rate                                 : 1 509 Kbps
Channel(s)                               : 2 channels
Channel positions                        : Front: L R
Sampling rate                            : 48.0 KHz
Bit depth                                : 16 bits
Compression mode                         : Lossy
Stream size                              : 248 MiB (17%)
Title                                    : DTS 2.0 [Redc4t]
Language                                 : English
Default                                  : No
Forced                                   : No

Audio #3
ID                                       : 4
Format                                   : DTS
Format/Info                              : Digital Theater Systems
Mode                                     : 16
Format settings, Endianness              : Big
Codec ID                                 : A_DTS
Duration                                 : 22mn 58s
Bit rate mode                            : Constant
Bit rate                                 : 1 510 Kbps
Channel(s)                               : 6 channels
Channel positions                        : Front: L C R, Side: L R, LFE
Sampling rate                            : 48.0 KHz
Bit depth                                : 24 bits
Compression mode                         : Lossy
Stream size                              : 248 MiB (17%)
Title                                    : DTS 5.1 [Redc4t]
Language                                 : German
Default                                  : Yes
Forced                                   : No

Text #1
ID                                       : 5
Format                                   : ASS
Codec ID                                 : S_TEXT/ASS
Codec ID/Info                            : Advanced Sub Station Alpha
Compression mode                         : Lossless
Title                                    : ASS [FMA1394/Redc4t]
Language                                 : English
Default                                  : No
Forced                                   : No

Text #2
ID                                       : 6
Format                                   : ASS
Codec ID                                 : S_TEXT/ASS
Codec ID/Info                            : Advanced Sub Station Alpha
Compression mode                         : Lossless
Title                                    : ASS (TS+Kara) [FMA1394/Redc4t]
Language                                 : English
Default                                  : No
Forced                                   : No

Text #3
ID                                       : 7
Format                                   : ASS
Codec ID                                 : S_TEXT/ASS
Codec ID/Info                            : Advanced Sub Station Alpha
Compression mode                         : Lossless
Title                                    : ASS [Redc4t]
Language                                 : German
Default                                  : No
Forced                                   : No

Text #4
ID                                       : 8
Format                                   : ASS
Codec ID                                 : S_TEXT/ASS
Codec ID/Info                            : Advanced Sub Station Alpha
Compression mode                         : Lossless
Title                                    : ASS (TS+Kara) [Redc4t]
Language                                 : German
Default                                  : Yes
Forced                                   : No

Text #5
ID                                       : 9
Format                                   : PGS
Muxing mode                              : zlib
Codec ID                                 : S_HDMV/PGS
Codec ID/Info                            : Picture based subtitle format used on BDs/HD-DVDs
Title                                    : PGS [Redc4t]
Language                                 : Spanish
Default                                  : No
Forced                                   : No

Text #6
ID                                       : 10
Format                                   : PGS
Muxing mode                              : zlib
Codec ID                                 : S_HDMV/PGS
Codec ID/Info                            : Picture based subtitle format used on BDs/HD-DVDs
Title                                    : PGS [Redc4t]
Language                                 : French
Default                                  : No
Forced                                   : No

Text #7
ID                                       : 11
Format                                   : PGS
Muxing mode                              : zlib
Codec ID                                 : S_HDMV/PGS
Codec ID/Info                            : Picture based subtitle format used on BDs/HD-DVDs
Title                                    : PGS [Redc4t]
Language                                 : Portuguese
Default                                  : No
Forced                                   : No

Menu
00:00:00.000                             : en:Opening
00:01:26.300                             : en:Part A
00:12:36.010                             : en:Eyecatch
00:12:46.060                             : en:Part B
00:21:27.080                             : en:Ending
00:22:37.060                             : en:Preview

Beschreibung:
Death.Note.COMPLETE.German.ML.BluRay.1080p.x264-Redc4t
Du sollst (nicht) töten Der hochbegabte Schüler Light Yagami findet ein geheimnisvolles Notizbuch, das Todesgott Ryuk aus Langeweile in der Welt der Menschen zurückgelassen hat. Laut Gebrauchsanweisung stirbt jeder Mensch, dessen Namen man in dieses „Death Note“ schreibt. Obwohl Light zunächst skeptisch ist, probiert er das Buch aus und stellt schnell fest, dass aus dem Spiel tödlicher Ernst wird. Doch statt die Finger vom „Death Note“ zu lassen, brennt er darauf, alles Böse auszulöschen und die Welt radikal zu verändern … Das morbide Meisterwerk von MADHOUSE (Black Lagoon, Paranoia Agent) hat längst Kultstatus erreicht – toll erzählt und voller Spannung. Episoden: 37
Direct Download Links | DDL-Links

Ähnliche Releases der Kategorie