Der.Sturm.Life.on.the.Line.2015.German.AC3.BDRiP.x264-XDD

11. August 2016 von
Der.Sturm.Life.on.the.Line.2015.German.AC3.BDRiP.x264-XDD Warez-World
Aufrufe: 45 Hits
Vote 4 Us
Release:
Der Sturm Life on the BD-RIP
Genre:
Action
Laufzeit:
93 Min.
Größe:
1361 MB
Passwort:
Warez-World.org
Sprachen:
Video Codec:
MPEG-4 H.264 / AVC
Audio Stream:
Dolby Digital 5.1
Bewertung:
Video Vorschau:
Online Stream:
Info:
Zeige NFOVerberge NFO
General
Format                                   : Matroska
Format version                           : Version 4 / Version 2
File size                                : 1.33 GiB
Duration                                 : 1h 37mn
Overall bit rate                         : 1 953 Kbps
Encoded date                             : UTC 2016-08-02 08:05:12
Writing application                      : mkvmerge v7.0.0 ('Where We Going') 64bit built on Jun  9 2014 15:16:27
Writing library                          : libebml v1.3.0 + libmatroska v1.4.1
DURATION                                 : 01:31:29.473000000
NUMBER_OF_FRAMES                         : 1010
NUMBER_OF_BYTES                          : 2529709
_STATISTICS_WRITING_APP                  : mkvmerge v7.0.0 ('Where We Going') 64bit built on Jun  9 2014 15:16:27
_STATISTICS_WRITING_DATE_UTC             : 2016-08-02 08:05:12
_STATISTICS_TAGS                         : BPS DURATION NUMBER_OF_FRAMES NUMBER_OF_BYTES

Video
ID                                       : 1
Format                                   : AVC
Format/Info                              : Advanced Video Codec
Format settings, CABAC                   : Yes
Format settings, ReFrames                : 8 frames
Codec ID                                 : V_MPEG4/ISO/AVC
Duration                                 : 1h 37mn
Bit rate                                 : 1 500 Kbps
Width                                    : 720 pixels
Height                                   : 304 pixels
Display aspect ratio                     : 2.35:1
Frame rate mode                          : Constant
Frame rate                               : 23.976 fps
Color space                              : YUV
Chroma subsampling                       : 4:2:0
Bit depth                                : 8 bits
Scan type                                : Progressive
Bits/(Pixel*Frame)                       : 0.286
Stream size                              : 1 021 MiB (75%)
Writing library                          : x264 core 144 r2525 40bb568
Encoding settings                        : cabac=1 / ref=8 / deblock=1:-1:-1 / analyse=0x3:0x133 / me=umh / subme=7 / psy=1 / psy_rd=1.00:0.10 / mixed_ref=1 / me_range=16 / chroma_me=1 / trellis=2 / 8x8dct=1 / cqm=0 / deadzone=21,11 / fast_pskip=0 / chroma_qp_offset=-3 / threads=12 / lookahead_threads=2 / sliced_threads=0 / nr=0 / decimate=1 / interlaced=0 / bluray_compat=0 / constrained_intra=0 / bframes=3 / b_pyramid=2 / b_adapt=2 / b_bias=0 / direct=3 / weightb=1 / open_gop=0 / weightp=2 / keyint=250 / keyint_min=23 / scenecut=40 / intra_refresh=0 / rc_lookahead=50 / rc=2pass / mbtree=1 / bitrate=1500 / ratetol=1.0 / qcomp=0.60 / qpmin=0 / qpmax=69 / qpstep=4 / cplxblur=20.0 / qblur=0.5 / ip_ratio=1.40 / aq=1:1.00
Default                                  : Yes
Forced                                   : No

Audio
ID                                       : 2
Format                                   : AC-3
Format/Info                              : Audio Coding 3
Mode extension                           : CM (complete main)
Format settings, Endianness              : Big
Codec ID                                 : A_AC3
Duration                                 : 1h 37mn
Bit rate mode                            : Constant
Bit rate                                 : 448 Kbps
Channel(s)                               : 6 channels
Channel positions                        : Front: L C R, Side: L R, LFE
Sampling rate                            : 48.0 KHz
Compression mode                         : Lossy
Stream size                              : 312 MiB (23%)
Default                                  : Yes
Forced                                   : No

Text #1
ID                                       : 3
Format                                   : VobSub
Muxing mode                              : zlib
Codec ID                                 : S_VOBSUB
Codec ID/Info                            : Picture based subtitle format used on DVDs
Title                                    : German (forced)
Language                                 : German
Default                                  : No
Forced                                   : No

Text #2
ID                                       : 4
Format                                   : VobSub
Muxing mode                              : zlib
Codec ID                                 : S_VOBSUB
Codec ID/Info                            : Picture based subtitle format used on DVDs
Title                                    : German (full)
Language                                 : German
Default                                  : No
Forced                                   : No

Menu
00:00:00.000                             : en:00:00:00.000
00:08:52.782                             : en:00:08:52.782
00:15:01.150                             : en:00:15:01.150
00:22:58.252                             : en:00:22:58.252
00:31:32.682                             : en:00:31:32.682
00:39:01.214                             : en:00:39:01.214
00:47:04.405                             : en:00:47:04.405
00:55:42.881                             : en:00:55:42.881
01:02:56.147                             : en:01:02:56.147
01:11:45.843                             : en:01:11:45.843
01:20:07.469                             : en:01:20:07.469
01:27:48.346                             : en:01:27:48.346

Beschreibung:
Der.Sturm.Life.on.the.Line.2015.German.AC3.BDRiP.x264-XDD
Zum Produkt: Der Sturm – Life on the Line Der Film erscheint in Deutsch und Englisch sowie mit deutschen Untertiteln. Als Extras gibt es eine Behind-The-Scenes-Doku, Trailer sowie eine Bildergalerie. Zum Film Es gibt so viele unbekannte Helden, die bereit sind, im Notfall für andere Menschen ihr Leben auf´s Spiel zu setzen. Man denke nur an Feuerwehrleute, Ärzte oder Polizisten. Die sogenannten „Linemen“ sind nur den wenigsten ein Begriff, aber sie errichten und reparieren Starkstrommasten und sichern damit die landesweite Stromversorgung in den USA. Und es ist einer der gefährlichsten Jobs der Welt. Allein seit 2013 kamen über 100 Stromtechniker ums Leben. Und „Der Sturm - Life on the Line“ zeigt uns nun endlich diese actionreiche Welt in schwindelerregender Höhe und stets unter 500.000 Volt. Da hilft nur ein sicherer Gurt....
Direct Download Links | DDL-Links

Ähnliche Releases der Kategorie