Die.5.Welle.2016.German.AC3MD.BDRiP.XViD-XDD

21. April 2016 von
Die.5.Welle.2016.German.AC3MD.BDRiP.XViD-XDD Warez-World
Aufrufe: 79 Hits
Vote 4 Us
Release:
Die 5. Welle BD-RIP
Genre:
Thriller
Laufzeit:
113 Min.
Größe:
1327 MB
Passwort:
Warez-World.org
Sprachen:
Video Codec:
MPEG-4 DivX / Xvid
Audio Stream:
Mic
Bewertung:
Video Vorschau:
Online Stream:
Info:
Zeige NFOVerberge NFO
General
Format                                   : AVI
Format/Info                              : Audio Video Interleave
File size                                : 1.30 GiB
Duration                                 : 1h 52mn
Overall bit rate                         : 1 651 Kbps
Writing application                      : VirtualDubMod 1.5.10.2 (build 2540/release)
Writing library                          : VirtualDubMod build 2540/release

Video
ID                                       : 0
Format                                   : MPEG-4 Visual
Format settings, BVOP                    : 1
Format settings, QPel                    : No
Format settings, GMC                     : No warppoints
Format settings, Matrix                  : Custom
Codec ID                                 : XVID
Codec ID/Hint                            : XviD
Duration                                 : 1h 52mn
Bit rate                                 : 1 450 Kbps
Width                                    : 720 pixels
Height                                   : 304 pixels
Display aspect ratio                     : 2.35:1
Frame rate                               : 23.976 fps
Color space                              : YUV
Chroma subsampling                       : 4:2:0
Bit depth                                : 8 bits
Scan type                                : Progressive
Compression mode                         : Lossy
Bits/(Pixel*Frame)                       : 0.276
Stream size                              : 1.14 GiB (88%)
Writing library                          : XviD 73

Audio
ID                                       : 1
Format                                   : AC-3
Format/Info                              : Audio Coding 3
Mode extension                           : CM (complete main)
Format settings, Endianness              : Big
Codec ID                                 : 2000
Duration                                 : 1h 52mn
Bit rate mode                            : Constant
Bit rate                                 : 192 Kbps
Channel(s)                               : 2 channels
Channel positions                        : Front: L R
Sampling rate                            : 48.0 KHz
Compression mode                         : Lossy
Stream size                              : 154 MiB (12%)
Alignment                                : Split accross interleaves
Interleave, duration                     : 42 ms (1.00 video frame)
Interleave, preload duration             : 500 ms

Beschreibung:
Die.5.Welle.2016.German.AC3MD.BDRiP.XViD-XDD
Vier zunehmend todbringende Angriffswellen haben den Großteil der Erde zerstört. Vor einer Kulisse aus Angst und Misstrauen ist Cassie auf der Flucht und versucht verzweifelt, ihren kleinen Bruder zu retten. Während sie sich auf die unvermeidliche und absolut tödliche fünfte Welle vorbereitet, verbündet sie sich mit einem jungen Mann, der ihre letzte Hoffnung sein könnte - falls sie ihm trauen kann.
Direct Download Links | DDL-Links

Ähnliche Releases der Kategorie