Die.erste.Nacht.1959.German.HDTV.x264-RAiNDEER

29. Juli 2016 von
Die.erste.Nacht.1959.German.HDTV.x264-RAiNDEER Warez-World
Aufrufe: 104 Hits
Vote 4 Us
Release:
Die erste Nacht HDTV
Genre:
Adventure
Laufzeit:
105 Min.
Größe:
873 MB
Passwort:
Warez-World.org
Sprachen:
Video Codec:
MPEG-4 H.264 / AVC
Audio Stream:
Dolby Digital 2.0
Bewertung:
Video Vorschau:
Online Stream:
Info:
Zeige NFOVerberge NFO
General
Format                                   : Matroska
Format version                           : Version 4 / Version 2
File size                                : 873 MiB
Duration                                 : 1h 16mn
Overall bit rate                         : 1 590 Kbps
Encoded date                             : UTC 2016-07-16 16:53:26
Writing application                      : mkvmerge v9.2.0 ('Photograph') 64bit
Writing library                          : libebml v1.3.3 + libmatroska v1.4.4
DURATION                                 : 01:16:44.992000000
NUMBER_OF_FRAMES                         : 143906
NUMBER_OF_BYTES                          : 110519808
_STATISTICS_WRITING_APP                  : mkvmerge v9.2.0 ('Photograph') 64bit
_STATISTICS_WRITING_DATE_UTC             : 2016-07-16 16:53:26
_STATISTICS_TAGS                         : BPS DURATION NUMBER_OF_FRAMES NUMBER_OF_BYTES

Video
ID                                       : 1
Format                                   : AVC
Format/Info                              : Advanced Video Codec
Format settings, CABAC                   : Yes
Format settings, ReFrames                : 5 frames
Codec ID                                 : V_MPEG4/ISO/AVC
Duration                                 : 1h 16mn
Bit rate                                 : 1 366 Kbps
Width                                    : 720 pixels
Height                                   : 306 pixels
Display aspect ratio                     : 2.35:1
Frame rate mode                          : Constant
Frame rate                               : 25.000 fps
Color space                              : YUV
Chroma subsampling                       : 4:2:0
Bit depth                                : 8 bits
Scan type                                : Progressive
Bits/(Pixel*Frame)                       : 0.248
Stream size                              : 750 MiB (86%)
Writing library                          : x264 core 148 r2694 3b70645
Encoding settings                        : cabac=1 / ref=5 / deblock=1:-3:-3 / analyse=0x3:0x113 / me=umh / subme=8 / psy=1 / psy_rd=1.00:0.00 / mixed_ref=1 / me_range=16 / chroma_me=1 / trellis=1 / 8x8dct=1 / cqm=0 / deadzone=21,11 / fast_pskip=1 / chroma_qp_offset=-2 / threads=6 / lookahead_threads=1 / sliced_threads=0 / nr=0 / decimate=1 / interlaced=0 / bluray_compat=0 / constrained_intra=0 / bframes=3 / b_pyramid=2 / b_adapt=2 / b_bias=0 / direct=3 / weightb=1 / open_gop=0 / weightp=2 / keyint=250 / keyint_min=25 / scenecut=40 / intra_refresh=0 / rc_lookahead=50 / rc=crf / mbtree=1 / crf=19.0 / qcomp=0.60 / qpmin=0 / qpmax=69 / qpstep=4 / ip_ratio=1.40 / aq=1:1.00
Default                                  : Yes
Forced                                   : No
Color range                              : Limited
Matrix coefficients                      : BT.709

Audio
ID                                       : 2
Format                                   : AC-3
Format/Info                              : Audio Coding 3
Mode extension                           : CM (complete main)
Format settings, Endianness              : Big
Codec ID                                 : A_AC3
Duration                                 : 1h 16mn
Bit rate mode                            : Constant
Bit rate                                 : 192 Kbps
Channel(s)                               : 2 channels
Channel positions                        : Front: L R
Sampling rate                            : 48.0 KHz
Compression mode                         : Lossy
Stream size                              : 105 MiB (12%)
Language                                 : German
Default                                  : No
Forced                                   : No

Beschreibung:
Die.erste.Nacht.1959.German.HDTV.x264-RAiNDEER
Larry erreicht der Hilferuf von Miniatur-Cowboy Jedediah: Die Exponate im New Yorker Naturkundemuseum wurden durch Hologramme ersetzt und die Originale zur Archivierung ins Smithsonian Museum nach Washington D.C. geschickt. Doch bevor sie im Archiv verschwinden sollten, wurden sie versehentlich zum Leben erweckt, inklusive dem ägyptischen Herrschers Kahmunrah. Gemeinsam mit drei der gemeinsten Schurken der Geschichte - Iwan der Schreckliche, Napoleon und Al Capone - will der Pharao seine Armeen auf das Museum und danach auf die ganze Welt loslassen. Larry eilt nach Washington, um die Ordnung im Museum wiederherzustellen. Ihm zur Seite stehen alte Gefährten wie Präsident Roosevelt, aber auch grandiose neue Freunde, darunter Einstein, Präsident Lincoln und allen voran die attraktive Pilotin Amelia. Gemeinsam kämpfen sie eine Schlacht, die ihre letzte sein könnte...
Direct Download Links | DDL-Links

Ähnliche Releases der Kategorie