Die.Ohrfeige.1974.GERMAN.HDTV.x264-DUPLiKAT

3. Januar 2017 von
Die.Ohrfeige.1974.GERMAN.HDTV.x264-DUPLiKAT Warez-World
Aufrufe: 11 Hits
Vote 4 Us
Release:
Die Ohrfeige HDTV
Genre:
Comedy
Laufzeit:
104 Min.
Größe:
950 MB
Passwort:
Warez-World.org
Sprachen:
Video Codec:
MPEG-4 H.264 / AVC
Audio Stream:
Dolby Digital 2.0
Bewertung:
Video Vorschau:
Online Stream:
Info:
Zeige NFOVerberge NFO
General
Unique ID
Complete name               : Die.Ohrfeige.1974.GERMAN.HDTV.x264-DUPLiKAT
Format                      : Matroska
Format version              : Version 4 / Version 2
File size                   : 950 MiB
Duration                    : 1h 39mn
Overall bit rate            : 1 336 Kbps
Encoded date                : UTC 2016-11-24 14:11:47
Writing application         : mkvmerge v7.8.0 ('River Man') 64bit built on Mar 27 2015 16:31:37
Writing library             : libebml v1.3.1 + libmatroska v1.4.2

Video
ID                          : 1
Format                      : AVC
Format/Info                 : Advanced Video Codec
Format profile              : High@L3.1
Format settings, CABAC      : Yes
Format settings, ReFrames   : 5 frames
Codec ID                    : V_MPEG4/ISO/AVC
Duration                    : 1h 39mn
Bit rate                    : 1 142 Kbps
Width                       : 720 pixels
Height                      : 436 pixels
Display aspect ratio        : 5:3
Frame rate mode             : Constant
Frame rate                  : 25.000 fps
Color space                 : YUV
Chroma subsampling          : 4:2:0
Bit depth                   : 8 bits
Scan type                   : Progressive
Bits/(Pixel*Frame)          : 0.146
Stream size                 : 813 MiB (86%)
Writing library             : x264 core 146 r2538 121396c
Encoding settings           : cabac=1 / ref=5 / deblock=1:0:0 / analyse=0x3:0x113 / me=umh / subme=8 / psy=1 / psy_rd=1.00:0.00 / mixed_ref=1 / me_range=16 / chroma_me=1 / trellis=1 / 8x8dct=1 / cqm=0 / deadzone=21,11 / fast_pskip=1 / chroma_qp_offset=-2 / threads=48 / lookahead_threads=3 / sliced_threads=0 / nr=0 / decimate=1 / interlaced=0 / bluray_compat=0 / constrained_intra=0 / bframes=3 / b_pyramid=2 / b_adapt=2 / b_bias=0 / direct=3 / weightb=1 / open_gop=0 / weightp=2 / keyint=250 / keyint_min=25 / scenecut=40 / intra_refresh=0 / rc_lookahead=50 / rc=crf / mbtree=1 / crf=19.0 / qcomp=0.60 / qpmin=0 / qpmax=69 / qpstep=4 / ip_ratio=1.40 / aq=1:1.00
Default                     : Yes
Forced                      : No

Audio
ID                          : 2
Format                      : AC-3
Format/Info                 : Audio Coding 3
Mode extension              : CM (complete main)
Format settings, Endianness : Big
Codec ID                    : A_AC3
Duration                    : 1h 39mn
Bit rate mode               : Constant
Bit rate                    : 192 Kbps
Channel(s)                  : 2 channels
Channel positions           : Front: L R
Sampling rate               : 48.0 KHz
Frame rate                  : 31.250 fps (1536 spf)
Compression mode            : Lossy
Stream size                 : 137 MiB (14%)
Language                    : German
Default                     : Yes
Forced                      : No
Beschreibung:
Die.Ohrfeige.1974.GERMAN.HDTV.x264-DUPLiKAT
Jean unterrichtet Geographie an der Oberstufe eines Pariser Gymnasiums und ist der Lehrer von Marc. Momentan hat er aber große Probleme, denn seine Freundin Madeleine verlässt ihn. Er selbst will den Schuldienst quittieren, weil er nach einer handgreiflichen Auseinandersetzung mit Polizisten in die Provinz versetzt werden soll. Und auch Isabelle macht ihm mitunter zu schaffen, obwohl die beiden sich im Grunde sehr gern haben. Besonders seit ihre Mutter Hélène ihn vor Jahren verlassen hat, hängt Jean noch mehr an seiner Tochter. So ist es ein ziemlicher Schock für ihn, als sie plötzlich das Weite sucht, nachdem Vater und Tochter wegen Isabelles verpatztem Examen Streit bekommen hatten. Jean findet heraus, dass Isabelle zu ihrer Mutter gefahren ist, die sich mit ihrem neuen Lebensgefährten in England aufhält. Er ahnt nicht, was auf ihn zukommt, als er Isabelle sofort nachreist.
Direct Download Links | DDL-Links

Ähnliche Releases der Kategorie