Die.vierte.Art.2009.German.BluRay.AVC.Remux-iND

2. Juli 2016 von
Die.vierte.Art.2009.German.BluRay.AVC.Remux-iND Warez-World
Aufrufe: 39 Hits
Vote 4 Us
Release:
Die vierte Art BD
Genre:
Thriller
Laufzeit:
161 Min.
Größe:
8358 MB
Passwort:
Warez-World.org
Sprachen:
Video Codec:
MPEG-4 H.264 / AVC
Audio Stream:
DTS 5.1
Info:
Zeige NFOVerberge NFO
General
Format                                   : Matroska
Format version                           : Version 2
File size                                : 8.16 GiB
Duration                                 : 1h 38mn
Overall bit rate                         : 11.9 Mbps
Movie name                               : Die vierte Art
Encoded date                             : UTC 2010-03-24 08:25:58
Writing application                      : mkvmerge v3.2.0 ('Beginnings') built on Feb 12 2010 23:02:51
Writing library                          : libebml v0.7.7 + libmatroska v0.8.1

Video
ID                                       : 1
Format                                   : AVC
Format/Info                              : Advanced Video Codec
Format settings, CABAC                   : Yes
Format settings, ReFrames                : 5 frames
Codec ID                                 : V_MPEG4/ISO/AVC
Duration                                 : 1h 38mn
Bit rate                                 : 8 659 Kbps
Width                                    : 1 920 pixels
Height                                   : 816 pixels
Display aspect ratio                     : 2.35:1
Frame rate mode                          : Constant
Frame rate                               : 23.976 fps
Color space                              : YUV
Chroma subsampling                       : 4:2:0
Bit depth                                : 8 bits
Scan type                                : Progressive
Bits/(Pixel*Frame)                       : 0.231
Stream size                              : 5.93 GiB (73%)
Title                                    : Die vierte Art
Writing library                          : x264 core 88 r1471 1144615
Encoding settings                        : cabac=1 / ref=5 / deblock=1:0:0 / analyse=0x3:0x133 / me=umh / subme=7 / psy=1 / psy_rd=1.00:0.00 / mixed_ref=1 / me_range=16 / chroma_me=1 / trellis=1 / 8x8dct=1 / cqm=0 / deadzone=21,11 / fast_pskip=0 / chroma_qp_offset=-2 / threads=6 / sliced_threads=0 / nr=0 / decimate=1 / mbaff=0 / constrained_intra=0 / bframes=3 / b_pyramid=2 / b_adapt=1 / b_bias=0 / direct=3 / wpredb=1 / wpredp=2 / keyint=250 / keyint_min=25 / scenecut=40 / intra_refresh=0 / rc_lookahead=40 / rc=crf / mbtree=1 / crf=20.0 / qcomp=0.60 / qpmin=10 / qpmax=51 / qpstep=4 / ip_ratio=1.40 / aq=1:1.00
Default                                  : Yes
Forced                                   : No

Audio #1
ID                                       : 2
Format                                   : DTS
Format/Info                              : Digital Theater Systems
Mode                                     : 16
Format settings, Endianness              : Big
Codec ID                                 : A_DTS
Duration                                 : 1h 38mn
Bit rate mode                            : Constant
Bit rate                                 : 1 509 Kbps
Channel(s)                               : 6 channels
Channel positions                        : Front: L C R, Side: L R, LFE
Sampling rate                            : 48.0 KHz
Bit depth                                : 24 bits
Compression mode                         : Lossy
Stream size                              : 1.03 GiB (13%)
Title                                    : DTS
Language                                 : German
Default                                  : Yes
Forced                                   : No

Audio #2
ID                                       : 3
Format                                   : DTS
Format/Info                              : Digital Theater Systems
Mode                                     : 16
Format settings, Endianness              : Big
Codec ID                                 : A_DTS
Duration                                 : 1h 38mn
Bit rate mode                            : Constant
Bit rate                                 : 1 509 Kbps
Channel(s)                               : 6 channels
Channel positions                        : Front: L C R, Side: L R, LFE
Sampling rate                            : 48.0 KHz
Bit depth                                : 24 bits
Compression mode                         : Lossy
Stream size                              : 1.03 GiB (13%)
Title                                    : DTS
Language                                 : English
Default                                  : No
Forced                                   : No

Menu
00:00:00.000                             : en:00:00:00.000
00:02:04.541                             : en:00:02:04.541
00:08:38.977                             : en:00:08:38.977
00:14:15.480                             : en:00:14:15.480
00:20:17.425                             : en:00:20:17.425
00:24:53.409                             : en:00:24:53.409
00:33:59.746                             : en:00:33:59.746
00:43:22.642                             : en:00:43:22.642
00:50:24.480                             : en:00:50:24.480
00:57:07.716                             : en:00:57:07.716
01:01:23.054                             : en:01:01:23.054
01:08:32.233                             : en:01:08:32.233
01:14:37.515                             : en:01:14:37.515
01:21:00.647                             : en:01:21:00.647
01:27:52.809                             : en:01:27:52.809
01:30:48.610                             : en:01:30:48.610

Beschreibung:
Die.vierte.Art.2009.German.BluRay.AVC.Remux-iND
Dr.Tyler führt nach dem gewaltsamen Tod ihres Mannes eine Studie über unerklärliche Phänomene weiter. Viele Patienten haben Schlafstörungen und massive Angstgefühle. Nach Hypnosesitzungen kommt es zu Selbstmord, Mord und Verletzungen. Sie ist davon überzeugt, dass auch die anderen betroffenen, einschliesslich ihr selbst, von Ausserirdischen entführt, doch zurück gebracht wurden.
Direct Download Links | DDL-Links

Ähnliche Releases der Kategorie