Die.wilden.Kerle.6.Die.Legende.lebt.2016.German.AC3.BDRiP.XviD-LeetXD

11. August 2016 von
Die.wilden.Kerle.6.Die.Legende.lebt.2016.German.AC3.BDRiP.XviD-LeetXD Warez-World
Aufrufe: 40 Hits
Vote 4 Us
Release:
Die wilden Kerle 6 - Die Legende lebt BD-RIP
Genre:
Action
Laufzeit:
96 Min.
Größe:
1400 MB
Passwort:
Warez-World.org
Sprachen:
Video Codec:
MPEG-4 DivX / Xvid
Audio Stream:
Dolby Digital 5.1
Bewertung:
Video Vorschau:
Online Stream:
Info:
Zeige NFOVerberge NFO
General
Format                                   : AVI
Format/Info                              : Audio Video Interleave
File size                                : 1.37 GiB
Duration                                 : 1h 40mn
Overall bit rate                         : 1 956 Kbps
Writing application                      : VirtualDubMod 1.5.10.2 (build 2540/release)
Writing library                          : VirtualDubMod build 2540/release

Video
ID                                       : 0
Format                                   : MPEG-4 Visual
Format settings, BVOP                    : No
Format settings, QPel                    : No
Format settings, GMC                     : No warppoints
Format settings, Matrix                  : Default (H.263)
Codec ID                                 : XVID
Codec ID/Hint                            : XviD
Duration                                 : 1h 40mn
Bit rate                                 : 1 499 Kbps
Width                                    : 720 pixels
Height                                   : 304 pixels
Display aspect ratio                     : 2.35:1
Frame rate                               : 23.976 fps
Color space                              : YUV
Chroma subsampling                       : 4:2:0
Bit depth                                : 8 bits
Scan type                                : Progressive
Compression mode                         : Lossy
Bits/(Pixel*Frame)                       : 0.286
Stream size                              : 1.05 GiB (77%)
Writing library                          : XviD 1.1.2 (UTC 2006-11-01)

Audio
ID                                       : 1
Format                                   : AC-3
Format/Info                              : Audio Coding 3
Mode extension                           : CM (complete main)
Format settings, Endianness              : Big
Codec ID                                 : 2000
Duration                                 : 1h 40mn
Bit rate mode                            : Constant
Bit rate                                 : 448 Kbps
Channel(s)                               : 6 channels
Channel positions                        : Front: L C R, Side: L R, LFE
Sampling rate                            : 48.0 KHz
Compression mode                         : Lossy
Stream size                              : 321 MiB (23%)
Alignment                                : Split accross interleaves
Interleave, duration                     : 42 ms (1.00 video frame)
Interleave, preload duration             : 500 ms

Beschreibung:
Die.wilden.Kerle.6.Die.Legende.lebt.2016.German.AC3.BDRiP.XviD-LeetXD
In "Die wilden Kerle - Die Legende lebt" treten sieben, neue unerschrockene Helden gegen den Dicken Michi und seine Schergen an - im Kampf um den Teufelstopf, wild sein und Ehre. Angeführt von Leo treffen sein Bruder Elias, Finn, Joshua, Oskar, Matze und Müller nicht nur auf alte Bekannte, sondern im ultimativen Endspiel auch auf die "Galaktischen Sieger" - eine Herausforderung, die schier unmöglich scheint. Sind Leo und Co. wild genug, um als Sieger den Teufelstopf verlassen zu können?
Direct Download Links | DDL-Links

Ähnliche Releases der Kategorie