Dirty.Grandpa.2016.German.AC3MD.WEBRip.XviD-iNTERFilm

21. April 2016 von
Dirty.Grandpa.2016.German.AC3MD.WEBRip.XviD-iNTERFilm Warez-World
Aufrufe: 107 Hits
Vote 4 Us
Release:
Dirty Grandpa WEB-RIP
Genre:
Comedy
Laufzeit:
102 Min.
Größe:
1609 MB
Passwort:
Warez-World.org
Sprachen:
Video Codec:
MPEG-4 DivX / Xvid
Audio Stream:
Mic
Bewertung:
Video Vorschau:
Online Stream:
Info:
Zeige NFOVerberge NFO
General
Format                                   : AVI
Format/Info                              : Audio Video Interleave
Format profile                           : OpenDML
Format settings                          : rec
File size                                : 1.57 GiB
Duration                                 : 1h 40mn
Overall bit rate                         : 2 247 Kbps
Writing application                      : AVI-Mux GUI 1.17.8.3, Feb 16 201019:42:50

Video
ID                                       : 0
Format                                   : MPEG-4 Visual
Format settings, BVOP                    : 2
Format settings, QPel                    : Yes
Format settings, GMC                     : No warppoints
Format settings, Matrix                  : Default (H.263)
Muxing mode                              : Packed bitstream
Codec ID                                 : XVID
Codec ID/Hint                            : XviD
Duration                                 : 1h 40mn
Bit rate                                 : 1 791 Kbps
Width                                    : 720 pixels
Height                                   : 304 pixels
Display aspect ratio                     : 2.35:1
Frame rate                               : 25.000 fps
Color space                              : YUV
Chroma subsampling                       : 4:2:0
Bit depth                                : 8 bits
Scan type                                : Progressive
Compression mode                         : Lossy
Bits/(Pixel*Frame)                       : 0.327
Stream size                              : 1.25 GiB (80%)
Writing library                          : XviD 1.2.1 (UTC 2008-12-04)

Audio #1
ID                                       : 1
Format                                   : AC-3
Format/Info                              : Audio Coding 3
Mode extension                           : CM (complete main)
Format settings, Endianness              : Big
Codec ID                                 : 2000
Duration                                 : 1h 40mn
Bit rate mode                            : Constant
Bit rate                                 : 256 Kbps
Channel(s)                               : 2 channels
Channel positions                        : Front: L R
Sampling rate                            : 48.0 KHz
Compression mode                         : Lossy
Stream size                              : 183 MiB (11%)
Alignment                                : Aligned on interleaves
Interleave, duration                     : 64 ms (1.60 video frames)
Interleave, preload duration             : 192 ms

Audio #2
ID                                       : 2
Format                                   : AC-3
Format/Info                              : Audio Coding 3
Mode extension                           : CM (complete main)
Format settings, Endianness              : Big
Codec ID                                 : 2000
Duration                                 : 1h 40mn
Bit rate mode                            : Constant
Bit rate                                 : 192 Kbps
Channel(s)                               : 2 channels
Channel positions                        : Front: L R
Sampling rate                            : 48.0 KHz
Compression mode                         : Lossy
Stream size                              : 137 MiB (9%)
Alignment                                : Aligned on interleaves
Interleave, duration                     : 64 ms (1.60 video frames)
Interleave, preload duration             : 192 ms
Title                                    : dirty

Beschreibung:
Dirty.Grandpa.2016.German.AC3MD.WEBRip.XviD-iNTERFilm
Nach dem Tod seiner Frau glaubt der Rentner Dick (Robert De Niro), dass nun die Zeit gekommen ist, noch einmal so richtig die Sau rauszulassen. Seine Gemahlin gab ihm vor ihrem Tod den Segen dazu, was sollte ihn also stoppen? Nun, die Spaßbremse ist ausgerechnet Enkel Jason (Zac Efron), den der Opa zum Spring Break nach Florida mitnimmt. Der spießige junge Mann kann kaum fassen, dass er und sein Großvater zu Party-Tagen in Daytona Beach sind, so kurz vor Jasons Hochzeit mit Meredith (Julianne Hough) – aber Dick ist weiterhin voll in Feierlaune, zumal es an einer Raststätte zwischen ihm und der frechen Lenore (Aubrey Plaza) gehörig gefunkt hat. Auf dem wilden Trip kommen sich Großvater und Enkel dann unerwartet näher und inmitten von Saufereien, Schlägereien und Flirts steht Jason plötzlich vor der Frage, ob die Ehe mit Meredith wirklich das ist, was er will…
Direct Download Links | DDL-Links

Ähnliche Releases der Kategorie