Dirty.Grandpa.2016.WEBRip.German.AC3D.x264-PS

22. April 2016 von
Dirty.Grandpa.2016.WEBRip.German.AC3D.x264-PS Warez-World
Aufrufe: 100 Hits
Vote 4 Us
Release:
Dirty Grandpa WEB-RIP
Genre:
Comedy
Laufzeit:
102 Min.
Größe:
947 MB
Passwort:
Warez-World.org
Sprachen:
Video Codec:
MPEG-4 H.264 / AVC
Audio Stream:
Mic
Bewertung:
Video Vorschau:
Online Stream:
Info:
Zeige NFOVerberge NFO
General
Format                                   : Matroska
Format version                           : Version 2
File size                                : 942 MiB
Duration                                 : 1h 41mn
Overall bit rate                         : 1 293 Kbps
Encoded date                             : UTC 2016-04-18 19:21:17
Writing application                      : mkvmerge v3.4.0 ('Rapunzel') gebaut am May 15 2010 09:38:20
Writing library                          : libebml v0.8.0 + libmatroska v0.9.0

Video
ID                                       : 1
Format                                   : AVC
Format/Info                              : Advanced Video Codec
Format settings, CABAC                   : Yes
Format settings, ReFrames                : 5 frames
Codec ID                                 : V_MPEG4/ISO/AVC
Duration                                 : 1h 41mn
Bit rate                                 : 1 075 Kbps
Width                                    : 720 pixels
Height                                   : 304 pixels
Display aspect ratio                     : 2.35:1
Frame rate mode                          : Constant
Frame rate                               : 25.000 fps
Color space                              : YUV
Chroma subsampling                       : 4:2:0
Bit depth                                : 8 bits
Scan type                                : Progressive
Bits/(Pixel*Frame)                       : 0.196
Stream size                              : 783 MiB (83%)
Title                                    : x264 PS
Writing library                          : x264 core 146 r2538 121396c
Encoding settings                        : cabac=1 / ref=5 / deblock=1:0:0 / analyse=0x3:0x113 / me=umh / subme=8 / psy=1 / psy_rd=1.00:0.00 / mixed_ref=1 / me_range=16 / chroma_me=1 / trellis=2 / 8x8dct=1 / cqm=0 / deadzone=21,11 / fast_pskip=0 / chroma_qp_offset=-2 / threads=12 / lookahead_threads=2 / sliced_threads=0 / nr=0 / decimate=1 / interlaced=0 / bluray_compat=0 / constrained_intra=0 / bframes=5 / b_pyramid=2 / b_adapt=1 / b_bias=0 / direct=3 / weightb=1 / open_gop=0 / weightp=1 / keyint=250 / keyint_min=25 / scenecut=40 / intra_refresh=0 / rc_lookahead=40 / rc=crf / mbtree=1 / crf=17.0 / qcomp=0.60 / qpmin=16 / qpmax=69 / qpstep=4 / ip_ratio=1.40 / aq=1:1.00
Language                                 : English
Default                                  : Yes
Forced                                   : Yes

Audio
ID                                       : 2
Format                                   : AC-3
Format/Info                              : Audio Coding 3
Mode extension                           : CM (complete main)
Format settings, Endianness              : Big
Codec ID                                 : A_AC3
Duration                                 : 1h 41mn
Bit rate mode                            : Constant
Bit rate                                 : 192 Kbps
Channel(s)                               : 2 channels
Channel positions                        : Front: L R
Sampling rate                            : 48.0 KHz
Compression mode                         : Lossy
Stream size                              : 140 MiB (15%)
Title                                    : Mic
Language                                 : German
Default                                  : Yes
Forced                                   : Yes

Beschreibung:
Dirty.Grandpa.2016.WEBRip.German.AC3D.x264-PS
Nach dem Tod seiner Frau glaubt der Rentner Dick (Robert De Niro), dass nun die Zeit gekommen ist, noch einmal so richtig die Sau rauszulassen. Seine Gemahlin gab ihm vor ihrem Tod den Segen dazu, was sollte ihn also stoppen? Nun, die Spaßbremse ist ausgerechnet Enkel Jason (Zac Efron), den der Opa zum Spring Break nach Florida mitnimmt. Der spießige junge Mann kann kaum fassen, dass er und sein Großvater zu Party-Tagen in Daytona Beach sind, so kurz vor Jasons Hochzeit mit Meredith (Julianne Hough) – aber Dick ist weiterhin voll in Feierlaune, zumal es an einer Raststätte zwischen ihm und der frechen Lenore (Aubrey Plaza) gehörig gefunkt hat. Auf dem wilden Trip kommen sich Großvater und Enkel dann unerwartet näher und inmitten von Saufereien, Schlägereien und Flirts steht Jason plötzlich vor der Frage, ob die Ehe mit Meredith wirklich das ist, was er will…
Direct Download Links | DDL-Links

Ähnliche Releases der Kategorie