Dirty.Grandpa.2016.WEBRip.German.AC3D.XViD-PS

22. April 2016 von
Dirty.Grandpa.2016.WEBRip.German.AC3D.XViD-PS Warez-World
Aufrufe: 115 Hits
Vote 4 Us
Release:
Dirty Grandpa WEB-RIP
Genre:
Comedy
Laufzeit:
102 Min.
Größe:
1471 MB
Passwort:
Warez-World.org
Sprachen:
Video Codec:
MPEG-4 DivX / Xvid
Audio Stream:
Mic
Bewertung:
Video Vorschau:
Online Stream:
Info:
Zeige NFOVerberge NFO
General
Format                                   : AVI
Format/Info                              : Audio Video Interleave
File size                                : 1.42 GiB
Duration                                 : 1h 41mn
Overall bit rate                         : 1 997 Kbps
Writing application                      : VirtualDubMod 1.4.13
Writing library                          : VirtualDub build 14328/release

Video
ID                                       : 0
Format                                   : MPEG-4 Visual
Format settings, BVOP                    : 2
Format settings, QPel                    : No
Format settings, GMC                     : No warppoints
Format settings, Matrix                  : Default (H.263)
Codec ID                                 : XVID
Codec ID/Hint                            : XviD
Duration                                 : 1h 41mn
Bit rate                                 : 1 795 Kbps
Width                                    : 720 pixels
Height                                   : 304 pixels
Display aspect ratio                     : 2.35:1
Frame rate                               : 25.000 fps
Color space                              : YUV
Chroma subsampling                       : 4:2:0
Bit depth                                : 8 bits
Scan type                                : Progressive
Compression mode                         : Lossy
Bits/(Pixel*Frame)                       : 0.328
Stream size                              : 1.28 GiB (90%)
Writing library                          : XviD 64

Audio
ID                                       : 1
Format                                   : AC-3
Format/Info                              : Audio Coding 3
Mode extension                           : CM (complete main)
Format settings, Endianness              : Big
Codec ID                                 : 2000
Duration                                 : 1h 41mn
Bit rate mode                            : Constant
Bit rate                                 : 192 Kbps
Channel(s)                               : 2 channels
Channel positions                        : Front: L R
Sampling rate                            : 48.0 KHz
Compression mode                         : Lossy
Stream size                              : 140 MiB (10%)
Alignment                                : Split accross interleaves
Interleave, duration                     : 40 ms (1.00 video frame)
Interleave, preload duration             : 500 ms

Beschreibung:
Dirty.Grandpa.2016.WEBRip.German.AC3D.XViD-PS
Durch eine Ehe mit der kontrollsüchtigen Meredith ist für Jason auch eine Partnerschaft in der Kanzlei seines Schwiegervaters in spe gesichert. Der lebenshungrige Großvater Dick allerdings nötigt seinen spießigen Enkel noch kurz vor dessen Hochzeit, ihn nach Daytona zum Spring Break zu fahren - mit verheerenden Folgen. Während der sexbesessene Dick auf Parties, Kneipenschlägereien und durchzechten Karaoke Nächten sein Leben in vollen Zügen genießt, ist er andererseits fest entschlossen, Jason von dessen biederen Zukunftsplänen abzubringen. Und dazu ist dem alten Gauner wirklich jedes Mittel recht. Doch schon bald stellen der DIRTY GRANDPA und sein verklemmter Enkel auf der wildesten Reise ihres Lebens fest, dass sie so einiges voneinander lernen können...
Direct Download Links | DDL-Links

Ähnliche Releases der Kategorie