Dirty.Grandpa.German.2016.AC3MD.WEBRiP.XVID-OMS

22. April 2016 von
Dirty.Grandpa.German.2016.AC3MD.WEBRiP.XVID-OMS Warez-World
Aufrufe: 166 Hits
Vote 4 Us
Release:
Dirty Grandpa WEB-RIP
Genre:
Comedy
Laufzeit:
102 Min.
Größe:
1456 MB
Passwort:
Warez-World.org
Sprachen:
Video Codec:
MPEG-4 DivX / Xvid
Audio Stream:
Mic
Bewertung:
Video Vorschau:
Online Stream:
Info:
Zeige NFOVerberge NFO
General
Format                                   : AVI
Format/Info                              : Audio Video Interleave
File size                                : 13.6 MiB
Duration                                 : 1mn 5s
Overall bit rate                         : 1 756 Kbps
Movie name                               : Dirty.Grandpa.German.2016.AC3MD.WEBRiP.XVID-OMS
Genre                                    : Kom+â-Âdie
Recorded date                            : 2016
Writing application                      : Lavf57.0.100

Video
ID                                       : 0
Format                                   : MPEG-4 Visual
Format settings, BVOP                    : No
Format settings, QPel                    : No
Format settings, GMC                     : No warppoints
Format settings, Matrix                  : Default (H.263)
Codec ID                                 : DIVX
Codec ID/Info                            : Project Mayo
Codec ID/Hint                            : DivX 4
Duration                                 : 1mn 5s
Bit rate                                 : 1 552 Kbps
Width                                    : 720 pixels
Height                                   : 304 pixels
Display aspect ratio                     : 2.35:1
Frame rate                               : 25.000 fps
Color space                              : YUV
Chroma subsampling                       : 4:2:0
Bit depth                                : 8 bits
Scan type                                : Progressive
Compression mode                         : Lossy
Bits/(Pixel*Frame)                       : 0.284
Stream size                              : 12.0 MiB (88%)
Writing library                          : XviD 67

Audio
ID                                       : 1
Format                                   : AC-3
Format/Info                              : Audio Coding 3
Mode extension                           : CM (complete main)
Format settings, Endianness              : Big
Codec ID                                 : 2000
Duration                                 : 1mn 5s
Bit rate mode                            : Constant
Bit rate                                 : 192 Kbps
Channel(s)                               : 2 channels
Channel positions                        : Front: L R
Sampling rate                            : 48.0 KHz
Bit depth                                : 16 bits
Compression mode                         : Lossy
Stream size                              : 1.49 MiB (11%)
Alignment                                : Aligned on interleaves
Interleave, duration                     : 32 ms (0.80 video frame)
Interleave, preload duration             : 3776 ms
Language                                 : German

Beschreibung:
Dirty.Grandpa.German.2016.AC3MD.WEBRiP.XVID-OMS
Durch eine Ehe mit der kontrollsüchtigen Meredith ist für Jason auch eine Partnerschaft in der Kanzlei seines Schwiegervaters in spe gesichert. Der lebenshungrige Großvater Dick allerdings nötigt seinen spießigen Enkel noch kurz vor dessen Hochzeit, ihn nach Daytona zum Spring Break zu fahren - mit verheerenden Folgen. Während der sexbesessene Dick auf Parties, Kneipenschlägereien und durchzechten Karaoke Nächten sein Leben in vollen Zügen genießt, ist er andererseits fest entschlossen, Jason von dessen biederen Zukunftsplänen abzubringen. Und dazu ist dem alten Gauner wirklich jedes Mittel recht. Doch schon bald stellen der DIRTY GRANDPA und sein verklemmter Enkel auf der wildesten Reise ihres Lebens fest, dass sie so einiges voneinander lernen können...
Direct Download Links | DDL-Links

Ähnliche Releases der Kategorie