Dogman.Das.Tal.der.letzten.Krieger.1995.German.XviD-CCL

21. April 2016 von
Dogman.Das.Tal.der.letzten.Krieger.1995.German.XviD-CCL Warez-World
Aufrufe: 51 Hits
Vote 4 Us
Release:
Dogman - Das Tal der letzten Krieger DVD-RIP
Genre:
Adventure
Laufzeit:
90 Min.
Größe:
1300 MB
Passwort:
Warez-World.org
Sprachen:
Video Codec:
MPEG-4 DivX / Xvid
Audio Stream:
Stereo
Bewertung:
Video Vorschau:
Online Stream:
Info:
Zeige NFOVerberge NFO
General
Format                                   : AVI
Format/Info                              : Audio Video Interleave
File size                                : 1.27 GiB
Duration                                 : 1h 46mn
Overall bit rate                         : 1 705 Kbps

Video
ID                                       : 0
Format                                   : MPEG-4 Visual
Format settings, BVOP                    : No
Format settings, QPel                    : No
Format settings, GMC                     : No warppoints
Format settings, Matrix                  : Default (MPEG)
Codec ID                                 : XVID
Codec ID/Hint                            : XviD
Duration                                 : 1h 46mn
Bit rate                                 : 1 506 Kbps
Width                                    : 768 pixels
Height                                   : 576 pixels
Display aspect ratio                     : 4:3
Frame rate                               : 25.000 fps
Color space                              : YUV
Chroma subsampling                       : 4:2:0
Bit depth                                : 8 bits
Scan type                                : Progressive
Compression mode                         : Lossy
Bits/(Pixel*Frame)                       : 0.136
Stream size                              : 1.12 GiB (88%)
Writing library                          : XviD 62

Audio
ID                                       : 1
Format                                   : MPEG Audio
Format version                           : Version 1
Format profile                           : Layer 3
Codec ID                                 : 55
Codec ID/Hint                            : MP3
Duration                                 : 1h 46mn
Bit rate mode                            : Constant
Bit rate                                 : 192 Kbps
Channel(s)                               : 2 channels
Sampling rate                            : 44.1 KHz
Compression mode                         : Lossy
Stream size                              : 146 MiB (11%)
Alignment                                : Split accross interleaves
Interleave, duration                     : 80 ms (2.00 video frames)

Beschreibung:
Dogman.Das.Tal.der.letzten.Krieger.1995.German.XviD-CCL
Montana. Ein Gefängnisbus verunglückt in den Rocky Mountains. Drei gefährliche Schwerverbrecher können entkommen - bewaffnet! Nach erfolgloser Suche beauftragt der Sheriff den Kopfgeldjäger Lewis Gates. Die Spur der Häftlinge führt Gates in die entlegene, menschenleere Wildnis der Rockies. Er findet die Verbrecher und will sie bei Morgengrauen in ihrem Nachtcamp überraschen. Mitten in der Nacht wird Gates durch Schüsse geweckt. Alles, was der Menschenjäger von seiner "Beute" noch vorfindet, ist frisches Blut. Irgendjemand ist ihm zuvorgekommen - jemand, der brennt vor Haß...
Direct Download Links | DDL-Links

Ähnliche Releases der Kategorie