Jack.Reacher.2.Kein.Weg.zurueck.2016.German.DTSHD.7.1.RETAiL.DL.1080p.BluRay.AVC.Remux-Pate

16.02.2017 von ShadowEagle
Aufrufe: 27 Hits
Vote 4 Us
Release:
Jack Reacher 2 Kein Weg zurueck BD
Genre:
Action
Größe:
28440 MB
Passwort:
Kein Passwort
Sprachen:
Video Codec:
MPEG-4 H.264 / AVC
Audio Stream:
Dolby Digital 5.1
Bewertung:
Video Vorschau:
Online Stream:
Info:
Zeige NFOVerberge NFO
General
Unique ID                                : 199074277454476430461864019865240673355 (0x95C44FAB80D9335F86E35C03C6611C4B)
Complete name                            : F:\MOVIEZ\Jack Reacher 2 Kein Weg zurueck 2016 German DTSHD 7 1 RETAiL DL 1080p BluRay AVC Remux-Pate\Jack.Reacher.2.Kein.Weg.zurueck.2016.German.DTSHD.7.1.RETAiL.DL.1080p.BluRay.AVC.Remux-Pate\pate-reach2.7.1.rmx.mkv
Format                                   : Matroska
Format version                           : Version 4 / Version 2
File size                                : 27.7 GiB
Duration                                 : 1 h 58 min
Overall bit rate mode                    : Variable
Overall bit rate                         : 33.5 Mb/s
Encoded date                             : UTC 2017-02-09 20:38:08
Writing application                      : mkvmerge v8.0.0 ('Til The Day That I Die') 64bit
Writing library                          : libebml v1.3.1 + libmatroska v1.4.2

Video
ID                                       : 1
Format                                   : AVC
Format/Info                              : Advanced Video Codec
Format profile                           : High@L4.1
Format settings, CABAC                   : Yes
Format settings, ReFrames                : 4 frames
Codec ID                                 : V_MPEG4/ISO/AVC
Duration                                 : 1 h 58 min
Bit rate mode                            : Variable
Bit rate                                 : 23.7 Mb/s
Maximum bit rate                         : 30.0 Mb/s
Width                                    : 1 920 pixels
Height                                   : 1 080 pixels
Display aspect ratio                     : 16:9
Frame rate mode                          : Constant
Frame rate                               : 23.976 (24000/1001) FPS
Color space                              : YUV
Chroma subsampling                       : 4:2:0
Bit depth                                : 8 bits
Scan type                                : Progressive
Bits/(Pixel*Frame)                       : 0.477
Stream size                              : 19.6 GiB (71%)
Title                                    : Remux Pate
Language                                 : German
Default                                  : Yes
Forced                                   : Yes

Audio #1
ID                                       : 2
Format                                   : DTS
Format/Info                              : Digital Theater Systems
Format profile                           : MA / Core
Mode                                     : 16
Format settings, Endianness              : Big
Codec ID                                 : A_DTS
Duration                                 : 1 h 58 min
Bit rate mode                            : Variable / Constant
Bit rate                                 : 4 761 kb/s / 1 509 kb/s
Channel(s)                               : 8 channels / 6 channels
Channel positions                        : Front: L C R, Side: L R, Back: L R, LFE / Front: L C R, Side: L R, LFE
Sampling rate                            : 48.0 kHz
Frame rate                               : 93.750 FPS (512 spf)
Bit depth                                : 24 bits
Compression mode                         : Lossless / Lossy
Stream size                              : 3.93 GiB (14%)
Title                                    : DTSHD 7.1 dubbed by Pate
Language                                 : German
Default                                  : Yes
Forced                                   : Yes

Audio #2
ID                                       : 3
Format                                   : AC-3
Format/Info                              : Audio Coding 3
Mode extension                           : CM (complete main)
Format settings, Endianness              : Big
Codec ID                                 : A_AC3
Duration                                 : 1 h 58 min
Bit rate mode                            : Constant
Bit rate                                 : 640 kb/s
Channel(s)                               : 6 channels
Channel positions                        : Front: L C R, Side: L R, LFE
Sampling rate                            : 48.0 kHz
Frame rate                               : 31.250 FPS (1536 spf)
Compression mode                         : Lossy
Stream size                              : 541 MiB (2%)
Language                                 : German
Default                                  : No
Forced                                   : No

Audio #3
ID                                       : 4
Format                                   : Atmos / TrueHD
Codec ID                                 : A_TRUEHD
Duration                                 : 1 h 58 min
Bit rate mode                            : Variable
Bit rate                                 : 4 326 kb/s
Maximum bit rate                         : 7 758 kb/s
Channel(s)                               : Object Based / 8 channels
Channel positions                        : Object Based / Front: L C R, Side: L R, Back: L R, LFE
Sampling rate                            :  / 48.0 kHz
Frame rate                               : 1 200.000 FPS (40 spf)
Compression mode                         : Lossless
Stream size                              : 3.57 GiB (13%)
Language                                 : English
Default                                  : No
Forced                                   : No

Text #1
ID                                       : 5
Format                                   : UTF-8
Codec ID                                 : S_TEXT/UTF8
Codec ID/Info                            : UTF-8 Plain Text
Duration                                 : 1 h 17 min
Bit rate                                 : 0 b/s
Count of elements                        : 8
Stream size                              : 179 Bytes (0%)
Title                                    : forced
Language                                 : German
Default                                  : Yes
Forced                                   : Yes

Text #2
ID                                       : 6
Format                                   : PGS
Muxing mode                              : zlib
Codec ID                                 : S_HDMV/PGS
Codec ID/Info                            : Picture based subtitle format used on BDs/HD-DVDs
Duration                                 : 1 h 57 min
Bit rate                                 : 9 841 b/s
Count of elements                        : 2852
Stream size                              : 8.25 MiB (0%)
Title                                    : complete
Language                                 : German
Default                                  : No
Forced                                   : No

Text #3
ID                                       : 7
Format                                   : PGS
Muxing mode                              : zlib
Codec ID                                 : S_HDMV/PGS
Codec ID/Info                            : Picture based subtitle format used on BDs/HD-DVDs
Duration                                 : 1 h 51 min
Bit rate                                 : 10.1 kb/s
Count of elements                        : 2824
Stream size                              : 8.05 MiB (0%)
Title                                    : complete
Language                                 : English
Default                                  : No
Forced                                   : No

Menu
00:00:00.000                             : en:00:00:00.000
00:07:00.629                             : en:00:07:00.629
00:15:19.877                             : en:00:15:19.877
00:20:33.858                             : en:00:20:33.858
00:29:04.576                             : en:00:29:04.576
00:34:35.740                             : en:00:34:35.740
00:42:40.141                             : en:00:42:40.141
00:49:28.007                             : en:00:49:28.007
00:58:44.563                             : en:00:58:44.563
01:03:10.161                             : en:01:03:10.161
01:09:35.755                             : en:01:09:35.755
01:15:05.334                             : en:01:15:05.334
01:21:59.665                             : en:01:21:59.665
01:27:07.222                             : en:01:27:07.222
01:34:14.065                             : en:01:34:14.065
01:46:44.857                             : en:01:46:44.857
01:53:30.846                             : en:01:53:30.846
Beschreibung:
Jack.Reacher.2.Kein.Weg.zurueck.2016.German.DTSHD.7.1.RETAiL.DL.1080p.BluRay.AVC.Remux-Pate
Jahre nachdem er sich aus dem Kommando einer Eliteeinheit der Militärpolizei zurückgezogen hat, wird der umherziehende Rächer Jack Reacher von seinem alten Leben eingeholt, als seine geschätzte Nachfolgerin im Amt, Major Susan Turner, zu Unrecht der Spionage bezichtigt wird. Reacher setzt alles aufs Spiel, um ihre Unschuld zu beweisen und die wahren Verantwortlichen hinter dem Mord an mehreren Soldaten zu entlarven...
Direct Download Links | DDL-Links

Ähnliche Releases der Kategorie