Star.Wars.Episode.VII.Das.Erwachen.der.Macht.2015.German.AC3.BDRiP.XViD-HaN

21.04.2016 von Sairenji
Aufrufe: 2 Hits
Vote 4 Us
Release:
Star Wars: Episode VII - Das Erwachen der Macht BD-RIP
Genre:
Action
Laufzeit:
135 Min.
Größe:
2051 MB
Passwort:
Kein Passwort
Sprachen:
Video Codec:
MPEG-4 DivX / Xvid
Video System:
WEB-RIP
Audio Stream:
Dolby Digital 5.1
Audio Bitrate:
NFO
Bewertung:
Video Vorschau:
Online Stream:
Hinweise:
Auflösung:
1920x1080
Bitrate:
3200
Video Source:
BluRay
Info:
Zeige NFOVerberge NFO
General
Format                                   : AVI
Format/Info                              : Audio Video Interleave
Format profile                           : OpenDML
File size                                : 2.00 GiB
Duration                                 : 2h 18mn
Overall bit rate                         : 2 076 Kbps
Writing application                      : VirtualDubMod 1.5.10.3 | www.virtualdub-fr.org || (build 2550/release)
Writing library                          : VirtualDubMod build 2550/release

Video
ID                                       : 0
Format                                   : MPEG-4 Visual
Format settings, BVOP                    : 2
Format settings, QPel                    : No
Format settings, GMC                     : No warppoints
Format settings, Matrix                  : Default (H.263)
Codec ID                                 : XVID
Codec ID/Hint                            : XviD
Duration                                 : 2h 18mn
Bit rate                                 : 1 616 Kbps
Width                                    : 720 pixels
Height                                   : 304 pixels
Display aspect ratio                     : 2.35:1
Frame rate                               : 23.976 fps
Color space                              : YUV
Chroma subsampling                       : 4:2:0
Bit depth                                : 8 bits
Scan type                                : Progressive
Compression mode                         : Lossy
Bits/(Pixel*Frame)                       : 0.308
Stream size                              : 1.56 GiB (78%)
Writing library                          : XviD 67

Audio
ID                                       : 1
Format                                   : AC-3
Format/Info                              : Audio Coding 3
Mode extension                           : CM (complete main)
Format settings, Endianness              : Big
Codec ID                                 : 2000
Duration                                 : 2h 18mn
Bit rate mode                            : Constant
Bit rate                                 : 448 Kbps
Channel(s)                               : 6 channels
Channel positions                        : Front: L C R, Side: L R, LFE
Sampling rate                            : 48.0 KHz
Compression mode                         : Lossy
Stream size                              : 443 MiB (22%)
Alignment                                : Split accross interleaves
Interleave, duration                     : 42 ms (1.00 video frame)
Interleave, preload duration             : 500 ms
Beschreibung:
Star.Wars.Episode.VII.Das.Erwachen.der.Macht.2015.German.AC3.BDRiP.XViD-HaN
Gut dreißig Jahre nach Zerstörung des zweiten Todessterns und der Zerschlagung des Imperiums hat die dunkle Seite der Macht zu neuer Größe gefunden und sich unter dem Banner der Ersten Ordnung neu formiert. Unter der Führung des skrupellosen Supreme Leader Snoke terrorisieren seine Schergen die Galaxis, allen voran der finstere Kylo Ren. Nur Luke Skywalker scheint das Gleichgewicht der Macht wiederherstellen zu können, doch der Jedimeister ist verschwunden. General Leia Organa schickt ihren besten Piloten Poe Dameron auf die Suche nach ihm, doch auf seiner Mission gerät er in Gefangenschaft. Der fahnenflüchtige Sturmtruppler FN-2187 alias Finn kann Poe befreien, und bei der gemeinsamen Flucht landen sie auf dem Planeten Jakku, wo sie auf die Schrottsammlerin Rey treffen. Und auch der kleine Roboter BB-8 spielt auf der Suche nach Luke eine entscheidende Rolle.
Direct Download Links | DDL-Links

Ähnliche Releases der Kategorie