Dragonball.Z.Movie.01.Die.Todeszone.des.Garlic.Jr.UNCUT.German.ML.720p.BluRay.x264-iND

11. August 2016 von
Dragonball.Z.Movie.01.Die.Todeszone.des.Garlic.Jr.UNCUT.German.ML.720p.BluRay.x264-iND Warez-World
Aufrufe: 97 Hits
Vote 4 Us
Release:
Dragonball Z - Movie 01: Die Todeszone des Garlic.Jr BD
Genre:
Anime
Laufzeit:
42 Min.
Größe:
2372 MB
Passwort:
Warez-World.org
Sprachen:
Video Codec:
MPEG-4 H.264 / AVC
Audio Stream:
Dolby Digital 5.1
Bewertung:
Video Vorschau:
Online Stream:
Hinweise:
Uncut
Info:
Zeige NFOVerberge NFO
General
Format                                   : Matroska
Format version                           : Version 1
File size                                : 2.32 GiB
Duration                                 : 41mn 23s
Overall bit rate                         : 8 011 Kbps
Encoded date                             : UTC 2009-01-02 03:46:25
Writing application                      : mkvmerge v2.4.1 ('Use Me') built on Dec  5 2008 18:30:05
Writing library                          : libebml v0.7.7 + libmatroska v0.8.1

Video
ID                                       : 1
Format                                   : AVC
Format/Info                              : Advanced Video Codec
Format settings, CABAC                   : Yes
Format settings, ReFrames                : 5 frames
Codec ID                                 : V_MPEG4/ISO/AVC
Duration                                 : 41mn 23s
Bit rate                                 : 6 310 Kbps
Width                                    : 1 280 pixels
Height                                   : 720 pixels
Display aspect ratio                     : 16:9
Frame rate mode                          : Constant
Frame rate                               : 23.976 fps
Color space                              : YUV
Chroma subsampling                       : 4:2:0
Bit depth                                : 8 bits
Scan type                                : Progressive
Bits/(Pixel*Frame)                       : 0.286
Stream size                              : 1.77 GiB (76%)
Writing library                          : x264 core 65 r1028 83baa7f
Encoding settings                        : cabac=1 / ref=5 / deblock=1:0:0 / analyse=0x3:0x113 / me=umh / subme=7 / psy_rd=1.0:0.0 / mixed_ref=1 / me_range=16 / chroma_me=1 / trellis=1 / 8x8dct=1 / cqm=0 / deadzone=21,11 / chroma_qp_offset=-2 / threads=6 / nr=0 / decimate=1 / mbaff=0 / bframes=3 / b_pyramid=1 / b_adapt=1 / b_bias=0 / direct=1 / wpredb=1 / keyint=250 / keyint_min=25 / scenecut=40(pre) / rc=2pass / bitrate=6310 / ratetol=1.0 / qcomp=0.60 / qpmin=10 / qpmax=51 / qpstep=4 / cplxblur=20.0 / qblur=0.5 / ip_ratio=1.40 / pb_ratio=1.30 / aq=1:1.00
Language                                 : English
Default                                  : Yes
Forced                                   : No

Audio #1
ID                                       : 2
Format                                   : AC-3
Format/Info                              : Audio Coding 3
Mode extension                           : CM (complete main)
Format settings, Endianness              : Big
Codec ID                                 : A_AC3
Duration                                 : 41mn 23s
Bit rate mode                            : Constant
Bit rate                                 : 640 Kbps
Channel(s)                               : 6 channels
Channel positions                        : Front: L C R, Side: L R, LFE
Sampling rate                            : 48.0 KHz
Compression mode                         : Lossy
Stream size                              : 189 MiB (8%)
Language                                 : English
Default                                  : No
Forced                                   : No

Audio #2
ID                                       : 3
Format                                   : AC-3
Format/Info                              : Audio Coding 3
Mode extension                           : CM (complete main)
Format settings, Endianness              : Big
Codec ID                                 : A_AC3
Duration                                 : 41mn 23s
Bit rate mode                            : Constant
Bit rate                                 : 640 Kbps
Channel(s)                               : 1 channel
Channel positions                        : Front: C
Sampling rate                            : 48.0 KHz
Compression mode                         : Lossy
Stream size                              : 189 MiB (8%)
Language                                 : Japanese
Default                                  : No
Forced                                   : No

Audio #3
ID                                       : 6
Format                                   : AC-3
Format/Info                              : Audio Coding 3
Mode extension                           : CM (complete main)
Format settings, Endianness              : Big
Codec ID                                 : A_AC3
Duration                                 : 41mn 23s
Bit rate mode                            : Constant
Bit rate                                 : 448 Kbps
Channel(s)                               : 6 channels
Channel positions                        : Front: L C R, Side: L R, LFE
Sampling rate                            : 48.0 KHz
Compression mode                         : Lossy
Stream size                              : 133 MiB (6%)
Language                                 : German
Default                                  : Yes
Forced                                   : No

Text #1
ID                                       : 4
Format                                   : UTF-8
Codec ID                                 : S_TEXT/UTF8
Codec ID/Info                            : UTF-8 Plain Text
Language                                 : English
Default                                  : No
Forced                                   : No

Text #2
ID                                       : 5
Format                                   : UTF-8
Codec ID                                 : S_TEXT/UTF8
Codec ID/Info                            : UTF-8 Plain Text
Language                                 : English
Default                                  : No
Forced                                   : No

Beschreibung:
Dragonball.Z.Movie.01.Die.Todeszone.des.Garlic.Jr.UNCUT.German.ML.720p.BluRay.x264-iND
Die Handlung des Films spielt einige Zeit nach der ersten Serie Dragonball, aber noch vor dem Beginn der Nachfolgeserie Dragonball Z und Son-Gokus Begegnung mit seinem Bruder Radditz. Mittlerweile ist Son-Goku mit Chichi verheiratet und hat einen Sohn namens Son-Gohan, der nach seinem Großvater benannt wurde. Nach seiner Niederlage im letzten großen Kampfsportturnier trainiert Piccolo, Son-Gokus Erzfeind, um ihn in einem Zweikampf zu töten. Neue Gefahr droht, als der fiese Giftzwerg Garlic Jr. auf der Erde auftaucht, um sich mit den sieben Dragon Balls ewiges Leben zu wünschen. Sein Plan gelingt und er entführt daraufhin Son-Gohan. Garlic Jr. sieht sich schon als allmächtigen Tyrannen, doch er hat die Rechnung ohne Son-Goku gemacht. Dieser verbündet sich mit Piccolo und beide greifen gemeinsam Garlic Jr. an. Doch wie soll man gegen jemanden gewinnen, der ewig lebt?
Direct Download Links | DDL-Links

Ähnliche Releases der Kategorie