Dragonball.Z.Movie.02.Der.Staerkste.auf.Erden.UNCUT.German.ML.720p.BluRay.x264-iND

11. August 2016 von
Dragonball.Z.Movie.02.Der.Staerkste.auf.Erden.UNCUT.German.ML.720p.BluRay.x264-iND Warez-World
Aufrufe: 105 Hits
Vote 4 Us
Release:
Dragonball Z - Movie 02: Der Stärkste auf Erden BD
Genre:
Anime
Laufzeit:
60 Min.
Größe:
2430 MB
Passwort:
Warez-World.org
Sprachen:
Video Codec:
MPEG-4 H.264 / AVC
Audio Stream:
Dolby Digital 5.1
Bewertung:
Video Vorschau:
Online Stream:
Hinweise:
Uncut
Info:
Zeige NFOVerberge NFO
General
Format                                   : Matroska
Format version                           : Version 1
File size                                : 2.37 GiB
Duration                                 : 59mn 38s
Overall bit rate                         : 5 696 Kbps
Encoded date                             : UTC 2009-01-12 02:19:22
Writing application                      : mkvmerge v2.4.1 ('Use Me') built on Dec  5 2008 18:30:05
Writing library                          : libebml v0.7.7 + libmatroska v0.8.1

Video
ID                                       : 1
Format                                   : AVC
Format/Info                              : Advanced Video Codec
Format settings, CABAC                   : Yes
Format settings, ReFrames                : 5 frames
Codec ID                                 : V_MPEG4/ISO/AVC
Duration                                 : 59mn 38s
Bit rate                                 : 3 978 Kbps
Width                                    : 1 280 pixels
Height                                   : 720 pixels
Display aspect ratio                     : 16:9
Frame rate mode                          : Constant
Frame rate                               : 23.976 fps
Color space                              : YUV
Chroma subsampling                       : 4:2:0
Bit depth                                : 8 bits
Scan type                                : Progressive
Bits/(Pixel*Frame)                       : 0.180
Stream size                              : 1.61 GiB (68%)
Writing library                          : x264 core 65 r1028 83baa7f
Encoding settings                        : cabac=1 / ref=5 / deblock=1:0:0 / analyse=0x3:0x113 / me=umh / subme=7 / psy_rd=1.0:0.0 / mixed_ref=1 / me_range=16 / chroma_me=1 / trellis=1 / 8x8dct=1 / cqm=0 / deadzone=21,11 / chroma_qp_offset=-2 / threads=6 / nr=0 / decimate=1 / mbaff=0 / bframes=3 / b_pyramid=1 / b_adapt=1 / b_bias=0 / direct=1 / wpredb=1 / keyint=250 / keyint_min=25 / scenecut=40(pre) / rc=2pass / bitrate=3978 / ratetol=1.0 / qcomp=0.60 / qpmin=10 / qpmax=51 / qpstep=4 / cplxblur=20.0 / qblur=0.5 / ip_ratio=1.40 / pb_ratio=1.30 / aq=1:1.00
Language                                 : English
Default                                  : Yes
Forced                                   : No

Audio #1
ID                                       : 2
Format                                   : AC-3
Format/Info                              : Audio Coding 3
Mode extension                           : CM (complete main)
Format settings, Endianness              : Big
Codec ID                                 : A_AC3
Duration                                 : 59mn 38s
Bit rate mode                            : Constant
Bit rate                                 : 448 Kbps
Channel(s)                               : 6 channels
Channel positions                        : Front: L C R, Side: L R, LFE
Sampling rate                            : 48.0 KHz
Compression mode                         : Lossy
Stream size                              : 191 MiB (8%)
Language                                 : German
Default                                  : Yes
Forced                                   : No

Audio #2
ID                                       : 3
Format                                   : AC-3
Format/Info                              : Audio Coding 3
Mode extension                           : CM (complete main)
Format settings, Endianness              : Big
Codec ID                                 : A_AC3
Duration                                 : 59mn 38s
Bit rate mode                            : Constant
Bit rate                                 : 640 Kbps
Channel(s)                               : 6 channels
Channel positions                        : Front: L C R, Side: L R, LFE
Sampling rate                            : 48.0 KHz
Compression mode                         : Lossy
Stream size                              : 273 MiB (11%)
Language                                 : English
Default                                  : No
Forced                                   : No

Audio #3
ID                                       : 4
Format                                   : AC-3
Format/Info                              : Audio Coding 3
Mode extension                           : CM (complete main)
Format settings, Endianness              : Big
Codec ID                                 : A_AC3
Duration                                 : 59mn 38s
Bit rate mode                            : Constant
Bit rate                                 : 640 Kbps
Channel(s)                               : 1 channel
Channel positions                        : Front: C
Sampling rate                            : 48.0 KHz
Compression mode                         : Lossy
Stream size                              : 273 MiB (11%)
Language                                 : Japanese
Default                                  : No
Forced                                   : No

Text #1
ID                                       : 5
Format                                   : UTF-8
Codec ID                                 : S_TEXT/UTF8
Codec ID/Info                            : UTF-8 Plain Text
Language                                 : English
Default                                  : No
Forced                                   : No

Text #2
ID                                       : 6
Format                                   : UTF-8
Codec ID                                 : S_TEXT/UTF8
Codec ID/Info                            : UTF-8 Plain Text
Language                                 : English
Default                                  : No
Forced                                   : No

Beschreibung:
Dragonball.Z.Movie.02.Der.Staerkste.auf.Erden.UNCUT.German.ML.720p.BluRay.x264-iND
Der Wissenschaftler Dr. Willow will mit Biotechnologie die Welt beherrschen. Da dessen Körper schon Tod ist, lebt sein Gehirn in einer speziell entwickelten Konstruktion weiter. Um seinen Plan zu verwirklichen, braucht er den stärksten Körper, den es auf Erden gibt. Muten-Roshi und Piccolo werden von Dr. Willows Assistent und seinen Cyborgs gefangen genommen. Son-Goku, Son-Gohan und Kuririn versuchen alles Erdenkliche, um ihre Freunde zu befreien. Dr. Willows weiterer Plan besteht darin, Son-Gukos Körper in seine Gewalt zu bringen, denn Piccolo steht bereits unter der Kontrolle des machtbesessenen Wissenschaftler und er möchte seinen Plan vollenden, die gesamte Erde ins Unheil zu stürzen...
Direct Download Links | DDL-Links

Ähnliche Releases der Kategorie