Dragonball.Z.Movie.07.Angriff.der.Cyborgs.UNCUT.German.ML.720p.BluRay.x264-iND

11. August 2016 von
Dragonball.Z.Movie.07.Angriff.der.Cyborgs.UNCUT.German.ML.720p.BluRay.x264-iND Warez-World
Aufrufe: 104 Hits
Vote 4 Us
Release:
Dragonball Z - Movie 07: Angriff der Cyborgs BD
Genre:
Anime
Laufzeit:
47 Min.
Größe:
2365 MB
Passwort:
Warez-World.org
Sprachen:
Video Codec:
MPEG-4 H.264 / AVC
Audio Stream:
Dolby Digital 5.1
Bewertung:
Video Vorschau:
Online Stream:
Hinweise:
Uncut
Info:
Zeige NFOVerberge NFO
General
Format                                   : Matroska
Format version                           : Version 1
File size                                : 2.31 GiB
Duration                                 : 46mn 2s
Overall bit rate                         : 7 182 Kbps
Encoded date                             : UTC 2009-03-23 21:33:14
Writing application                      : mkvmerge v2.4.1 ('Use Me') built on Dec  5 2008 18:30:05
Writing library                          : libebml v0.7.7 + libmatroska v0.8.1

Video
ID                                       : 1
Format                                   : AVC
Format/Info                              : Advanced Video Codec
Format settings, CABAC                   : Yes
Format settings, ReFrames                : 5 frames
Codec ID                                 : V_MPEG4/ISO/AVC
Duration                                 : 46mn 2s
Bit rate                                 : 5 521 Kbps
Width                                    : 1 280 pixels
Height                                   : 720 pixels
Display aspect ratio                     : 16:9
Frame rate mode                          : Constant
Frame rate                               : 23.976 fps
Color space                              : YUV
Chroma subsampling                       : 4:2:0
Bit depth                                : 8 bits
Scan type                                : Progressive
Bits/(Pixel*Frame)                       : 0.250
Stream size                              : 1.73 GiB (75%)
Writing library                          : x264 core 65 r1074M b6bb3d4
Encoding settings                        : cabac=1 / ref=5 / deblock=1:-1:-1 / analyse=0x3:0x113 / me=umh / subme=7 / psy_rd=1.0:0.0 / mixed_ref=1 / me_range=16 / chroma_me=1 / trellis=1 / 8x8dct=1 / cqm=1 / deadzone=21,11 / chroma_qp_offset=-2 / threads=8 / nr=0 / decimate=1 / mbaff=0 / bframes=3 / b_pyramid=1 / b_adapt=1 / b_bias=0 / direct=3 / wpredb=1 / keyint=240 / keyint_min=24 / scenecut=40(pre) / rc=2pass / bitrate=5521 / ratetol=1.0 / qcomp=0.60 / qpmin=10 / qpmax=31 / qpstep=4 / cplxblur=20.0 / qblur=0.5 / ip_ratio=1.40 / pb_ratio=1.30 / aq=1:1.00
Language                                 : English
Default                                  : Yes
Forced                                   : No

Audio #1
ID                                       : 2
Format                                   : AC-3
Format/Info                              : Audio Coding 3
Mode extension                           : CM (complete main)
Format settings, Endianness              : Big
Codec ID                                 : A_AC3
Duration                                 : 46mn 2s
Bit rate mode                            : Constant
Bit rate                                 : 384 Kbps
Channel(s)                               : 6 channels
Channel positions                        : Front: L C R, Side: L R, LFE
Sampling rate                            : 48.0 KHz
Compression mode                         : Lossy
Stream size                              : 126 MiB (5%)
Language                                 : German
Default                                  : Yes
Forced                                   : No

Audio #2
ID                                       : 3
Format                                   : AC-3
Format/Info                              : Audio Coding 3
Mode extension                           : CM (complete main)
Format settings, Endianness              : Big
Codec ID                                 : A_AC3
Duration                                 : 46mn 2s
Bit rate mode                            : Constant
Bit rate                                 : 640 Kbps
Channel(s)                               : 6 channels
Channel positions                        : Front: L C R, Side: L R, LFE
Sampling rate                            : 48.0 KHz
Compression mode                         : Lossy
Stream size                              : 211 MiB (9%)
Language                                 : English
Default                                  : No
Forced                                   : No

Audio #3
ID                                       : 4
Format                                   : AC-3
Format/Info                              : Audio Coding 3
Mode extension                           : CM (complete main)
Format settings, Endianness              : Big
Codec ID                                 : A_AC3
Duration                                 : 46mn 2s
Bit rate mode                            : Constant
Bit rate                                 : 640 Kbps
Channel(s)                               : 1 channel
Channel positions                        : Front: C
Sampling rate                            : 48.0 KHz
Compression mode                         : Lossy
Stream size                              : 211 MiB (9%)
Language                                 : Japanese
Default                                  : No
Forced                                   : No

Text
ID                                       : 5
Format                                   : UTF-8
Codec ID                                 : S_TEXT/UTF8
Codec ID/Info                            : UTF-8 Plain Text
Language                                 : English
Default                                  : No
Forced                                   : No

Beschreibung:
Dragonball.Z.Movie.07.Angriff.der.Cyborgs.UNCUT.German.ML.720p.BluRay.x264-iND
Und wieder einmal ist es an Son Goku, die Welt zu retten. Denn die beiden von Dr. Gero erschaffenen Cyborgs C14 und C15 sind in der Stadt, um den Super Saiyajin zu töten. Auf ihrer Suche nach ihm legen sie die Stadt in Schutt und Asche. C14 und C15 haben nur ein Ziel: Son Goku zu töten! Außerhalb der Stadtmauern liefern sich die drei einen erbitterten Kampf, in den bald auch Trunks und Vegeta einsteigen. Als die drei Super Saiyajins am Ende ihrer Kräfte angelangt sind, kommt der fieseste, stärkste und schlimmste Cyborg C13 und macht sich über den geschwächten Son Goku her. Kultige Kampfszenen, haarsträubende Handgemenge und atemberaubende Action spielen sich über eine halbe Stunde nonstop in der Eiswüste ab. Mehr als einmal denkt man, Son Gokus letzte Stunde hätte geschlagen, doch er schafft es immer wieder, neue Kräfte zu sammeln. Mit einer spektakulären Genkidama versucht er seinen letzten Angriff auf C13.
Direct Download Links | DDL-Links

Ähnliche Releases der Kategorie