Dragonball.Z.Movie.08.Der.Legendaere.Super.Saiyajin.UNCUT.German.ML.720p.BluRay.x264-iND

11. August 2016 von
Dragonball.Z.Movie.08.Der.Legendaere.Super.Saiyajin.UNCUT.German.ML.720p.BluRay.x264-iND Warez-World
Aufrufe: 173 Hits
Vote 4 Us
Release:
Dragonball Z - Movie 08: Der Legendäre Super-Saiyajin BD
Genre:
Anime
Laufzeit:
77 Min.
Größe:
2881 MB
Passwort:
Warez-World.org
Sprachen:
Video Codec:
MPEG-4 H.264 / AVC
Audio Stream:
Dolby Digital 5.1
Bewertung:
Video Vorschau:
Online Stream:
Hinweise:
Uncut
Info:
Zeige NFOVerberge NFO
General
Format                                   : Matroska
Format version                           : Version 1
File size                                : 2.81 GiB
Duration                                 : 1h 16mn
Overall bit rate                         : 5 285 Kbps
Movie name                               : Dragon Ball Z Movie 8: Broly - The Legendary Super Saiyan
Encoded date                             : UTC 2008-07-01 18:31:54
Writing application                      : mkvmerge v2.2.0 ('Turn It On Again') built on Mar  4 2008 12:58:26
Writing library                          : libebml v0.7.7 + libmatroska v0.8.1

Video
ID                                       : 1
Format                                   : AVC
Format/Info                              : Advanced Video Codec
Format settings, CABAC                   : Yes
Format settings, ReFrames                : 11 frames
Codec ID                                 : V_MPEG4/ISO/AVC
Duration                                 : 1h 16mn
Bit rate                                 : 3 836 Kbps
Nominal bit rate                         : 4 268 Kbps
Width                                    : 1 280 pixels
Height                                   : 720 pixels
Display aspect ratio                     : 16:9
Frame rate mode                          : Constant
Frame rate                               : 23.976 fps
Color space                              : YUV
Chroma subsampling                       : 4:2:0
Bit depth                                : 8 bits
Scan type                                : Progressive
Bits/(Pixel*Frame)                       : 0.174
Stream size                              : 2.04 GiB (73%)
Writing library                          : x264 core 56 svn-681
Encoding settings                        : cabac=1 / ref=8 / deblock=1:-3:-3 / analyse=0x3:0x133 / me=umh / fpel_cmp=sad / subme=6 / me-prepass=0 / brdo=1 / mixed_ref=1 / me_range=16 / chroma_me=1 / trellis=0 / 8x8dct=1 / cqm=2 / deadzone=21,11 / chroma_qp_offset=0 / threads=6 / nr=0 / decimate=1 / mbaff=0 / bframes=5 / b_pyramid=1 / b_adapt=1 / b_bias=0 / direct=1 / wpredb=1 / bime=1 / keyint=250 / keyint_min=25 / scenecut=40(pre) / rc=2pass / bitrate=4268 / ratetol=1.0 / rceq='blurCplx^(1-qComp)' / qcomp=0.60 / qpmin=10 / qpmax=51 / qpstep=4 / cplxblur=20.0 / qblur=0.5 / ip_ratio=1.40 / pb_ratio=1.30 / aq=1:0.7:15.0
Language                                 : English
Default                                  : Yes
Forced                                   : No

Audio #1
ID                                       : 2
Format                                   : AC-3
Format/Info                              : Audio Coding 3
Mode extension                           : CM (complete main)
Format settings, Endianness              : Big
Codec ID                                 : A_AC3
Duration                                 : 1h 16mn
Bit rate mode                            : Constant
Bit rate                                 : 384 Kbps
Channel(s)                               : 6 channels
Channel positions                        : Front: L C R, Side: L R, LFE
Sampling rate                            : 48.0 KHz
Compression mode                         : Lossy
Delay relative to video                  : 32ms
Stream size                              : 209 MiB (7%)
Title                                    : AC3
Language                                 : German
Default                                  : Yes
Forced                                   : No

Audio #2
ID                                       : 3
Format                                   : AC-3
Format/Info                              : Audio Coding 3
Mode extension                           : CM (complete main)
Format settings, Endianness              : Big
Codec ID                                 : A_AC3
Duration                                 : 1h 16mn
Bit rate mode                            : Constant
Bit rate                                 : 192 Kbps
Channel(s)                               : 2 channels
Channel positions                        : Front: L R
Sampling rate                            : 48.0 KHz
Compression mode                         : Lossy
Stream size                              : 105 MiB (4%)
Title                                    : Fan Synchro
Language                                 : German
Default                                  : No
Forced                                   : No

Audio #3
ID                                       : 4
Format                                   : DTS
Format/Info                              : Digital Theater Systems
Mode                                     : 16
Format settings, Endianness              : Big
Codec ID                                 : A_DTS
Duration                                 : 1h 16mn
Bit rate mode                            : Constant
Bit rate                                 : 384 Kbps
Channel(s)                               : 2 channels
Channel positions                        : Front: L R
Sampling rate                            : 48.0 KHz
Bit depth                                : 16 bits
Compression mode                         : Lossy
Stream size                              : 209 MiB (7%)
Title                                    : DTS
Language                                 : English
Default                                  : No
Forced                                   : No

Audio #4
ID                                       : 5
Format                                   : DTS
Format/Info                              : Digital Theater Systems
Mode                                     : 16
Format settings, Endianness              : Big
Codec ID                                 : A_DTS
Duration                                 : 1h 16mn
Bit rate mode                            : Constant
Bit rate                                 : 384 Kbps
Channel(s)                               : 2 channels
Channel positions                        : Front: L R
Sampling rate                            : 48.0 KHz
Bit depth                                : 16 bits
Compression mode                         : Lossy
Stream size                              : 209 MiB (7%)
Title                                    : DTS
Language                                 : Japanese
Default                                  : No
Forced                                   : No

Text
ID                                       : 6
Format                                   : ASS
Codec ID                                 : S_TEXT/ASS
Codec ID/Info                            : Advanced Sub Station Alpha
Compression mode                         : Lossless
Language                                 : English
Default                                  : Yes
Forced                                   : No

Beschreibung:
Dragonball.Z.Movie.08.Der.Legendaere.Super.Saiyajin.UNCUT.German.ML.720p.BluRay.x264-iND
Meister Kaio bittet Son-Goku um Hilfe. Denn ein Super-Sayajin hat die Süd-Galaxie angegriffen. Son-Goku macht sich sofort auf dem Weg. Inzwischen ist Paragus, auch ein Sayajin, auf der Erde gelandet und bittet Vegeta mitzukommen. Angeblich möchte er Vegeta zum König des neuen Planeten Vegeta krönen. Vegeta lässt sich darauf ein und Trunks, Kuririn, Son-Gohan, Oolong und Muten-Roshi fliegen mit. Auf Neu-Vegeta lernen die Z-Kämpfer dann Broly, den Sohn von Paragus kennen. Paragus behauptet, dass nur Vegeta den legendären Super-Sayajin besiegen kann, der hier irgendwo sein Unwesen treibt. Als Son-Goku auf Neu-Vegea eintrifft, finden die Freunde bald heraus, dass sie in eine Falle getappt sind. Welche finsteren Pläne verfolgen Broly und sein Vater Paragus?
Direct Download Links | DDL-Links

Ähnliche Releases der Kategorie