Dragonball.Z.Movie.11.Angriff.der.Bio.Kaempfer.UNCUT.German.ML.720p.BluRay.x264-iND

11. August 2016 von
Dragonball.Z.Movie.11.Angriff.der.Bio.Kaempfer.UNCUT.German.ML.720p.BluRay.x264-iND Warez-World
Aufrufe: 142 Hits
Vote 4 Us
Release:
Dragonball Z - Movie 11: Angriff der Bio-Kämpfer BD
Genre:
Anime
Laufzeit:
47 Min.
Größe:
2377 MB
Passwort:
Warez-World.org
Sprachen:
Video Codec:
MPEG-4 H.264 / AVC
Audio Stream:
Dolby Digital 5.1
Bewertung:
Video Vorschau:
Online Stream:
Hinweise:
Uncut
Info:
Zeige NFOVerberge NFO
General
Format                                   : Matroska
Format version                           : Version 2
File size                                : 2.32 GiB
Duration                                 : 46mn 35s
Overall bit rate                         : 7 131 Kbps
Encoded date                             : UTC 2010-09-05 14:42:24
Writing application                      : mkvmerge v3.2.0 ('Beginnings') gebaut am Feb 12 2010 16:46:17
Writing library                          : libebml v0.7.9 + libmatroska v0.8.1

Video
ID                                       : 1
Format                                   : AVC
Format/Info                              : Advanced Video Codec
Format settings, CABAC                   : Yes
Format settings, ReFrames                : 4 frames
Codec ID                                 : V_MPEG4/ISO/AVC
Duration                                 : 46mn 35s
Bit rate                                 : 5 404 Kbps
Width                                    : 1 280 pixels
Height                                   : 720 pixels
Display aspect ratio                     : 16:9
Frame rate mode                          : Constant
Frame rate                               : 23.976 fps
Color space                              : YUV
Chroma subsampling                       : 4:2:0
Bit depth                                : 8 bits
Scan type                                : Progressive
Bits/(Pixel*Frame)                       : 0.245
Stream size                              : 1.71 GiB (74%)
Writing library                          : x264 core 88 r1471 1144615
Encoding settings                        : cabac=1 / ref=2 / deblock=1:-1:-1 / analyse=0x3:0x113 / me=hex / subme=6 / psy=1 / psy_rd=1.00:0.15 / mixed_ref=1 / me_range=16 / chroma_me=1 / trellis=1 / 8x8dct=1 / cqm=0 / deadzone=21,11 / fast_pskip=1 / chroma_qp_offset=-3 / threads=3 / sliced_threads=0 / nr=0 / decimate=1 / mbaff=0 / constrained_intra=0 / bframes=3 / b_pyramid=2 / b_adapt=1 / b_bias=0 / direct=1 / wpredb=1 / wpredp=2 / keyint=250 / keyint_min=25 / scenecut=40 / intra_refresh=0 / rc_lookahead=30 / rc=2pass / mbtree=1 / bitrate=5404 / ratetol=1.0 / qcomp=0.60 / qpmin=10 / qpmax=51 / qpstep=4 / cplxblur=20.0 / qblur=0.5 / ip_ratio=1.40 / aq=1:1.00
Default                                  : Yes
Forced                                   : No

Audio #1
ID                                       : 2
Format                                   : AC-3
Format/Info                              : Audio Coding 3
Mode extension                           : CM (complete main)
Format settings, Endianness              : Big
Codec ID                                 : A_AC3
Duration                                 : 46mn 35s
Bit rate mode                            : Constant
Bit rate                                 : 448 Kbps
Channel(s)                               : 6 channels
Channel positions                        : Front: L C R, Side: L R, LFE
Sampling rate                            : 48.0 KHz
Compression mode                         : Lossy
Stream size                              : 149 MiB (6%)
Language                                 : German
Default                                  : Yes
Forced                                   : No

Audio #2
ID                                       : 3
Format                                   : AC-3
Format/Info                              : Audio Coding 3
Mode extension                           : CM (complete main)
Format settings, Endianness              : Big
Codec ID                                 : A_AC3
Duration                                 : 46mn 35s
Bit rate mode                            : Constant
Bit rate                                 : 640 Kbps
Channel(s)                               : 6 channels
Channel positions                        : Front: L C R, Side: L R, LFE
Sampling rate                            : 48.0 KHz
Compression mode                         : Lossy
Stream size                              : 213 MiB (9%)
Language                                 : English
Default                                  : No
Forced                                   : No

Audio #3
ID                                       : 4
Format                                   : AC-3
Format/Info                              : Audio Coding 3
Mode extension                           : CM (complete main)
Format settings, Endianness              : Big
Codec ID                                 : A_AC3
Duration                                 : 46mn 35s
Bit rate mode                            : Constant
Bit rate                                 : 640 Kbps
Channel(s)                               : 1 channel
Channel positions                        : Front: C
Sampling rate                            : 48.0 KHz
Compression mode                         : Lossy
Stream size                              : 213 MiB (9%)
Language                                 : Japanese
Default                                  : No
Forced                                   : No

Text #1
ID                                       : 5
Format                                   : UTF-8
Codec ID                                 : S_TEXT/UTF8
Codec ID/Info                            : UTF-8 Plain Text
Language                                 : German
Default                                  : No
Forced                                   : No

Text #2
ID                                       : 6
Format                                   : UTF-8
Codec ID                                 : S_TEXT/UTF8
Codec ID/Info                            : UTF-8 Plain Text
Language                                 : English
Default                                  : No
Forced                                   : No

Beschreibung:
Dragonball.Z.Movie.11.Angriff.der.Bio.Kaempfer.UNCUT.German.ML.720p.BluRay.x264-iND
Jaga, ein ehemaliger Trainingskumpel von Mister Satan, ist von diesem in jungen Jahren mehrfach besiegt worden und beschließt sich zu rächen. Mister Satan soll gegen mehrere gentechnisch gezüchtete Bio-Kämpfer antreten. Zum Glück wird Mister Satan von C 18 begleitet, die endlich ihre Schulden eintreiben möchte. Und so hetzt Mister Satan C18 auf die Bio-Kämpfer. Trunks und Son-Goten sind den beiden neugierig gefolgt und schalten sich ebenfalls in den Kampf ein. Doch erschreckt müssen sie feststellen, dass es Jagas Biotechnikern gelungen ist Broly zu klonen. Beim Versuch Brolys Wiedergeburt zu verhindern, läuft Flüssigkeit aus dem Behälter aus, in dem Broly gezüchtet wurde, die sich als äußerst bösartig erweist.
Direct Download Links | DDL-Links

Ähnliche Releases der Kategorie