Dragonball.Z.Movie.12.Fusion.UNCUT.German.ML.720p.BluRay.x264-iND

11. August 2016 von
Dragonball.Z.Movie.12.Fusion.UNCUT.German.ML.720p.BluRay.x264-iND Warez-World
Aufrufe: 131 Hits
Vote 4 Us
Release:
Dragonball Z - Movie 12: Die Fusion BD
Genre:
Anime
Laufzeit:
51 Min.
Größe:
2526 MB
Passwort:
Warez-World.org
Sprachen:
Video Codec:
MPEG-4 H.264 / AVC
Audio Stream:
Dolby Digital 5.1
Bewertung:
Video Vorschau:
Online Stream:
Hinweise:
Uncut
Info:
Zeige NFOVerberge NFO
General
Format                                   : Matroska
Format version                           : Version 2
File size                                : 2.47 GiB
Duration                                 : 50mn 42s
Overall bit rate                         : 6 966 Kbps
Encoded date                             : UTC 2010-08-14 17:54:17
Writing application                      : mkvmerge v3.2.0 ('Beginnings') gebaut am Feb 12 2010 16:46:17
Writing library                          : libebml v0.7.9 + libmatroska v0.8.1

Video
ID                                       : 1
Format                                   : AVC
Format/Info                              : Advanced Video Codec
Format settings, CABAC                   : Yes
Format settings, ReFrames                : 4 frames
Codec ID                                 : V_MPEG4/ISO/AVC
Duration                                 : 50mn 42s
Bit rate                                 : 5 237 Kbps
Width                                    : 1 280 pixels
Height                                   : 720 pixels
Display aspect ratio                     : 16:9
Frame rate mode                          : Constant
Frame rate                               : 23.976 fps
Color space                              : YUV
Chroma subsampling                       : 4:2:0
Bit depth                                : 8 bits
Scan type                                : Progressive
Bits/(Pixel*Frame)                       : 0.237
Stream size                              : 1.81 GiB (73%)
Writing library                          : x264 core 88 r1471 1144615
Encoding settings                        : cabac=1 / ref=4 / deblock=1:1:1 / analyse=0x3:0x113 / me=hex / subme=6 / psy=1 / psy_rd=0.40:0.00 / mixed_ref=1 / me_range=16 / chroma_me=1 / trellis=1 / 8x8dct=1 / cqm=0 / deadzone=21,11 / fast_pskip=1 / chroma_qp_offset=-2 / threads=3 / sliced_threads=0 / nr=0 / decimate=1 / mbaff=0 / constrained_intra=0 / bframes=5 / b_pyramid=2 / b_adapt=1 / b_bias=0 / direct=1 / wpredb=1 / wpredp=2 / keyint=250 / keyint_min=25 / scenecut=40 / intra_refresh=0 / rc_lookahead=30 / rc=2pass / mbtree=1 / bitrate=5237 / ratetol=1.0 / qcomp=0.60 / qpmin=10 / qpmax=51 / qpstep=4 / cplxblur=20.0 / qblur=0.5 / ip_ratio=1.40 / aq=1:0.60
Language                                 : English
Default                                  : Yes
Forced                                   : No

Audio #1
ID                                       : 2
Format                                   : AC-3
Format/Info                              : Audio Coding 3
Mode extension                           : CM (complete main)
Format settings, Endianness              : Big
Codec ID                                 : A_AC3
Duration                                 : 50mn 42s
Bit rate mode                            : Constant
Bit rate                                 : 448 Kbps
Channel(s)                               : 6 channels
Channel positions                        : Front: L C R, Side: L R, LFE
Sampling rate                            : 48.0 KHz
Compression mode                         : Lossy
Stream size                              : 162 MiB (6%)
Language                                 : German
Default                                  : Yes
Forced                                   : No

Audio #2
ID                                       : 3
Format                                   : AC-3
Format/Info                              : Audio Coding 3
Mode extension                           : CM (complete main)
Format settings, Endianness              : Big
Codec ID                                 : A_AC3
Duration                                 : 50mn 42s
Bit rate mode                            : Constant
Bit rate                                 : 640 Kbps
Channel(s)                               : 6 channels
Channel positions                        : Front: L C R, Side: L R, LFE
Sampling rate                            : 48.0 KHz
Compression mode                         : Lossy
Stream size                              : 232 MiB (9%)
Language                                 : English
Default                                  : No
Forced                                   : No

Audio #3
ID                                       : 4
Format                                   : AC-3
Format/Info                              : Audio Coding 3
Mode extension                           : CM (complete main)
Format settings, Endianness              : Big
Codec ID                                 : A_AC3
Duration                                 : 50mn 42s
Bit rate mode                            : Constant
Bit rate                                 : 640 Kbps
Channel(s)                               : 1 channel
Channel positions                        : Front: C
Sampling rate                            : 48.0 KHz
Compression mode                         : Lossy
Stream size                              : 232 MiB (9%)
Language                                 : Japanese
Default                                  : No
Forced                                   : No

Text #1
ID                                       : 5
Format                                   : UTF-8
Codec ID                                 : S_TEXT/UTF8
Codec ID/Info                            : UTF-8 Plain Text
Language                                 : German
Default                                  : Yes
Forced                                   : No

Text #2
ID                                       : 6
Format                                   : UTF-8
Codec ID                                 : S_TEXT/UTF8
Codec ID/Info                            : UTF-8 Plain Text
Language                                 : English
Default                                  : No
Forced                                   : No

Beschreibung:
Dragonball.Z.Movie.12.Fusion.UNCUT.German.ML.720p.BluRay.x264-iND
Das Jenseits ist auch nicht mehr das, was es mal war. Genauer gesagt herrscht dort das totale Chaos, seitdem die Seelen-Reinigungsmaschine mit einem lauten Knall explodiert ist. Der kleine Junge, der in der Nähe der Maschine stand, wird durch die freigesetzten bösen Kräfte zu Janemba – einem ebenso kugelrunden wie boshaften Wesen. Janemba verändert die Regeln des Jenseits, schafft Chaos und Verwüstung und öffnet die Tür ins Reich der Lebenden – nun sorgen die Schurken der Hölle auch noch in der diesseitigen Welt für Ärger. Werden Son-Gohan, Videl, Trunks, Son-Goten, Vegeta und Son-Goku wieder die alte Ordnung herstellen können?
Direct Download Links | DDL-Links

Ähnliche Releases der Kategorie