Ein.ganzes.halbes.Jahr.HC.WEBRiP.MD.GERMAN.x264-XREL

1. August 2016 von
Ein.ganzes.halbes.Jahr.HC.WEBRiP.MD.GERMAN.x264-XREL Warez-World
Aufrufe: 63 Hits
Vote 4 Us
Release:
Ein ganzes halbes Jahr WEB-RIP
Genre:
Drama
Laufzeit:
110 Min.
Größe:
706 MB
Passwort:
Warez-World.org
Sprachen:
Video Codec:
MPEG-4 H.264 / AVC
Audio Stream:
Mic
Bewertung:
Video Vorschau:
Online Stream:
Hinweise:
MKV
Info:
Zeige NFOVerberge NFO
Ein.ganzes.halbes.Jahr.HC.WEBRiP.MD.GERMAN.x264-XREL
Format : Matroska
File size : 700 MiB
Overall bit rate : 889 Kbps
DURATION : 01:50:00.992000000
Format : AVC
Bit rate : 680 Kbps
Width : 720 pixels
Height : 304 pixels
Display aspect ratio : 2.35:1
Frame rate mode : Constant
Frame rate : 23.976 fps
Stream size : 535 MiB (76%)
Format : AC-3
Bit rate mode : Constant
Bit rate : 192 Kbps
Channel(s) : 2 channels
Channel positions : Front: L R
Sampling rate : 48.0 KHz
Stream size : 151 MiB (22%)
Beschreibung:
Ein.ganzes.halbes.Jahr.HC.WEBRiP.MD.GERMAN.x264-XREL
Louisa Clark (Emilia Clarke (/person/55183/Emilia-Clarke.html)) und William Traynor (Sam Claflin (/person/34862/Sam-Claflin.html)) könnten kaum unterschiedlicher sein. Sie ist eine junge Frau aus der Kleinstadt, die in einem Café arbeitet und mit ihrem einfachen Leben zufrieden ist, obwohl sie noch bei ihren Eltern (Brendan Coyle (/person/38342/Brendan-Coyle.html), Samantha Spiro) wohnt und ihr Freund Patrick (Matthew Lewis (/person/72001/Matthew-Lewis.html)) so gar nicht zu ihr passt. Will dagegen ist depressiv und launisch, seit er, der vormals erfolgreiche, draufgängerische Banker, im Rollstuhl sitzt. Zwei Jahre ist sein Unfall her, sein Leben hält Will nicht mehr für lebenswert – doch da lernt er Louisa kennen, die ihren Job im Café verloren hat und von Wills Mutter Camilla (Janet McTeer (/person/6130/Janet-McTeer.html)) nun für sechs Monate angestellt wurde, als emotionale Stütze für den Sohn. Lou kennt von Anfang an keine falsche Zurückhaltung und so verstehen sie und Will sich nach ersten Anlaufschwierigkeiten bald sehr gut. Sie merkt, dass ihr Wills Glück immer wichtiger wird – und ist alarmiert, als ihr dämmert, warum sie nur für sechs Monate eingestellt wurde…
Direct Download Links | DDL-Links

Ähnliche Releases der Kategorie