Ein.ganzes.halbes.Jahr.WEBHCRip.German.Line.Mic.Hybrid.Dubbed.XViD-PS

11. August 2016 von
Ein.ganzes.halbes.Jahr.WEBHCRip.German.Line.Mic.Hybrid.Dubbed.XViD-PS Warez-World
Aufrufe: 62 Hits
Vote 4 Us
Release:
Ein ganzes halbes Jahr WEB-RIP
Genre:
Romance
Laufzeit:
110 Min.
Größe:
1502 MB
Passwort:
Warez-World.org
Sprachen:
Video Codec:
MPEG-4 DivX / Xvid
Audio Stream:
Line
Bewertung:
Video Vorschau:
Online Stream:
Info:
Zeige NFOVerberge NFO
General
Format                                   : AVI
Format/Info                              : Audio Video Interleave
File size                                : 1.46 GiB
Duration                                 : 1h 49mn
Overall bit rate                         : 1 896 Kbps
Writing application                      : VirtualDubMod 1.4.13
Writing library                          : VirtualDub build 14328/release

Video
ID                                       : 0
Format                                   : MPEG-4 Visual
Format settings, BVOP                    : 2
Format settings, QPel                    : No
Format settings, GMC                     : No warppoints
Format settings, Matrix                  : Default (H.263)
Codec ID                                 : XVID
Codec ID/Hint                            : XviD
Duration                                 : 1h 49mn
Bit rate                                 : 1 695 Kbps
Width                                    : 720 pixels
Height                                   : 304 pixels
Display aspect ratio                     : 2.35:1
Frame rate                               : 23.976 fps
Color space                              : YUV
Chroma subsampling                       : 4:2:0
Bit depth                                : 8 bits
Scan type                                : Progressive
Compression mode                         : Lossy
Bits/(Pixel*Frame)                       : 0.323
Stream size                              : 1.30 GiB (89%)
Writing library                          : XviD 64

Audio
ID                                       : 1
Format                                   : AC-3
Format/Info                              : Audio Coding 3
Mode extension                           : CM (complete main)
Format settings, Endianness              : Big
Codec ID                                 : 2000
Duration                                 : 1h 49mn
Bit rate mode                            : Constant
Bit rate                                 : 192 Kbps
Channel(s)                               : 2 channels
Channel positions                        : Front: L R
Sampling rate                            : 48.0 KHz
Compression mode                         : Lossy
Stream size                              : 151 MiB (10%)
Alignment                                : Split accross interleaves
Interleave, duration                     : 42 ms (1.00 video frame)
Interleave, preload duration             : 500 ms

Beschreibung:
Ein.ganzes.halbes.Jahr.WEBHCRip.German.Line.Mic.Hybrid.Dubbed.XViD-PS
Franziska ist verzweifelt: Ihr Mann Rainer trennt sich von ihr - ausgerechnet vor der Hochzeit ihrer Cousine Amelia in Irland. Bei der Abreise fällt ihr ein geheimnisvolles Buch in die Hände, dessen Cover stetig wechselt. Franziska ist sich sicher, dass sie mit dem Buch als Schlüssel ihre große Liebe zurück gewinnen wird. Wenn sie es bis zur Hochzeit schafft, den Trauzeugen Adam mit seiner Exfreundin Sally zu vereinen, steht auch ihrem Glück nichts mehr im Weg. In den folgenden Tagen scheut Franziska keine Mühe, Adam mit Rat und Tat zur Seite zu stehen. Als Rainer auftaucht, um sich zu versöhnen, scheint Franziska am Ziel. Doch ihr Herz erkennt schließlich die Botschaft des magischen Buches: ihre wahre große Liebe.
Direct Download Links | DDL-Links

Ähnliche Releases der Kategorie